\m/ 80's metal \m/

Информационно-аналитический форум "80 см пыли" (In Search We Trust) "У нас никто никуда не спешит"
Железнодорожная биржа - RailAgent
It is currently 19 Aug 2017

All times are UTC + 3 hours

Spoiler
Chat - temporary registration for foreign users (please leave your application here)







Post new topic Reply to topic  [ 7 posts ] 
Author Message
 
PostPosted: 16 May 2010 
труъ антисионист
User avatar
Joined: 01 Aug 2007
Posts: 4529
Lоcаtion: Откуда и большинство из нас
Age: 36
Name: Дядя Вова
Image
Группа: Vicious Rumors
Альбом: Welcome to the Ball
Год: 1991
Лейбл: Atlantic
Стиль: Power Metal
Страна: USA
Формат: Flac (Tracks) / Log /Cue
Размер: 330 Mb

**********************************************************************************

Line Up:

Vocals : Carl Albert
Guitars : Geoff Thorpe
Guitars : Mark McGhee
Bass : Dave Starr
Drums : Larry Howe



Tracks:
01. Abandoned (4:15)
02. You only live twice (3:38)
03. Savior from anger (4:08)
04. Children (4:56)
05. Dust to dust (4:20)
06. Raise your hands (4:02)
07. Strange behaviour (4:07)
08. Six stepsisters (3:31)
09. Mastermind (3:55)
10. When love comes down (4:59)
11. Ends of the earth (3:13)


Total playing time 45:04

LOG
EAC extraction logfile from 4. February 2008, 18:30 for CD
Vicious Rumors / Welcome To The Ball

Used drive : BENQ DVD DD DW1620 Adapter: 1 ID: 0
Read mode : Secure with NO C2, accurate stream, NO disable cache
Read offset correction : 618
Overread into Lead-In and Lead-Out : No

Used output format : Internal WAV Routines
44.100 Hz; 16 Bit; Stereo

Other options :
Fill up missing offset samples with silence : Yes
Delete leading and trailing silent blocks : No
Installed external ASPI interface


Track 1
Filename C:\Documents and Settings\Soylent Green\Desktop\New Folder\EAC Files\Vicious Rumors - Welcome To The Ball - 01 - Abandoned.wav

Pre-gap length 0:00:02.00

Peak level 85.7 %
Track quality 99.9 %
Test CRC 10E7292A
Copy CRC 10E7292A
Copy OK

Track 2
Filename C:\Documents and Settings\Soylent Green\Desktop\New Folder\EAC Files\Vicious Rumors - Welcome To The Ball - 02 - You Only Live Twice.wav

Pre-gap length 0:00:03.65

Peak level 100.0 %
Track quality 100.0 %
Test CRC 013EEA20
Copy CRC 013EEA20
Copy OK

Track 3
Filename C:\Documents and Settings\Soylent Green\Desktop\New Folder\EAC Files\Vicious Rumors - Welcome To The Ball - 03 - Savior From Anger.wav

Pre-gap length 0:00:03.65

Peak level 95.4 %
Track quality 99.9 %
Test CRC 5D65CF03
Copy CRC 5D65CF03
Copy OK

Track 4
Filename C:\Documents and Settings\Soylent Green\Desktop\New Folder\EAC Files\Vicious Rumors - Welcome To The Ball - 04 - Children.wav

Pre-gap length 0:00:03.65

Peak level 99.3 %
Track quality 100.0 %
Test CRC CB4C15D9
Copy CRC CB4C15D9
Copy OK

Track 5
Filename C:\Documents and Settings\Soylent Green\Desktop\New Folder\EAC Files\Vicious Rumors - Welcome To The Ball - 05 - Dust To Dust.wav

Pre-gap length 0:00:03.65

Peak level 100.0 %
Track quality 100.0 %
Test CRC DCF2EB6D
Copy CRC DCF2EB6D
Copy OK

Track 6
Filename C:\Documents and Settings\Soylent Green\Desktop\New Folder\EAC Files\Vicious Rumors - Welcome To The Ball - 06 - Raise Your Hands.wav

Pre-gap length 0:00:03.65

Peak level 100.0 %
Track quality 100.0 %
Test CRC AA3F8535
Copy CRC AA3F8535
Copy OK

Track 7
Filename C:\Documents and Settings\Soylent Green\Desktop\New Folder\EAC Files\Vicious Rumors - Welcome To The Ball - 07 - Strange Behavior.wav

Pre-gap length 0:00:03.65

Peak level 100.0 %
Track quality 100.0 %
Test CRC B55A7AF3
Copy CRC B55A7AF3
Copy OK

Track 8
Filename C:\Documents and Settings\Soylent Green\Desktop\New Folder\EAC Files\Vicious Rumors - Welcome To The Ball - 08 - Six Stepsisters.wav

Pre-gap length 0:00:03.65

Peak level 100.0 %
Track quality 100.0 %
Test CRC 5C57BC55
Copy CRC 5C57BC55
Copy OK

Track 9
Filename C:\Documents and Settings\Soylent Green\Desktop\New Folder\EAC Files\Vicious Rumors - Welcome To The Ball - 09 - Mastermind.wav

Pre-gap length 0:00:03.65

Peak level 92.2 %
Track quality 100.0 %
Test CRC 545BBAA3
Copy CRC 545BBAA3
Copy OK

Track 10
Filename C:\Documents and Settings\Soylent Green\Desktop\New Folder\EAC Files\Vicious Rumors - Welcome To The Ball - 10 - When Love Comes Down.wav

Pre-gap length 0:00:03.65

Peak level 97.2 %
Track quality 100.0 %
Test CRC A86A5666
Copy CRC A86A5666
Copy OK

Track 11
Filename C:\Documents and Settings\Soylent Green\Desktop\New Folder\EAC Files\Vicious Rumors - Welcome To The Ball - 11 - Ends Of The Earth.wav

Pre-gap length 0:00:03.65

Peak level 99.9 %
Track quality 100.0 %
Test CRC 3DC304A3
Copy CRC 3DC304A3
Copy OK

No errors occured


End of status report


[youtube]<object width="480" height="385"><param name="movie" value="http://www.youtube.com/v/-CCxJW-1X0Q&hl=ru_RU&fs=1&color1=0x234900&color2=0x4e9e00"></param><param name="allowFullScreen" value="true"></param><param name="allowscriptaccess" value="always"></param><embed src="http://www.youtube.com/v/-CCxJW-1X0Q&hl=ru_RU&fs=1&color1=0x234900&color2=0x4e9e00" type="application/x-shockwave-flash" allowscriptaccess="always" allowfullscreen="true" width="480" height="385"></embed></object>[/youtube]

===================================DOWNLOAD========================================

NAROD Vicious Rumors - Welcome to the Ball (1991).rar
MEGA http://www.megaupload.com/?d=XGJ35D1C
IFOLDER http://ifolder.ru/17728853

_________________
Image
Image


Top
 Profile  
 
 
PostPosted: 16 May 2010 
А может смените мне статус?..
User avatar
Joined: 22 Nov 2008
Posts: 935
Lоcаtion: Schelcovo,Russia
Age: 45
Name: Сергей
В те времена они были круты,только здесь никто не слушал их.Одна из любимых команд, Carl Albert R.I.P


Top
 Profile  
 
 
PostPosted: 16 May 2010 
А может смените мне статус?..
User avatar
Joined: 24 Dec 2008
Posts: 541
Age: 43
Name: Дмитрий
Спасибо.


Top
 Profile  
 
 
PostPosted: 20 May 2010 
metallpaparazzy
User avatar
Joined: 20 Dec 2009
Posts: 674
Lоcаtion: Днепропетровск
Age: 42
Name: Геннадий
вау, отличный албум! :true: очень понравилси :meloman: не поверил сразу, что аж 91 год...
клевая банда, :thanx: :thanx: :thanx:


Top
 Profile E-mail  
 
 
PostPosted: 27 May 2010 
Хиппей (support team)
User avatar
Joined: 30 Jul 2007
Posts: 92255
Lоcаtion: Киев (Kyiv, UA)
Age: 44
Name: Andrey
Ну как это никто не знал?
Спасибо Всеволоду Баронину, например, по наводке которого познакомился с творчеством этой группы :true:
Жаль, что после этого релиза они... фигню играть начали :fingal:

_________________


Top
 Profile E-mail  
 
 
PostPosted: 27 May 2010 
А может смените мне статус?..
User avatar
Joined: 22 Nov 2008
Posts: 935
Lоcаtion: Schelcovo,Russia
Age: 45
Name: Сергей
Ну в то время рулил треш.А Всеволоду Баронину точно,огромное спасибо!А как же Word of Mouth ???? :shok:


Top
 Profile  
 
 
PostPosted: 27 May 2010 
Хиппей (support team)
User avatar
Joined: 30 Jul 2007
Posts: 92255
Lоcаtion: Киев (Kyiv, UA)
Age: 44
Name: Andrey
snider1971 wrote:
А как же Word of Mouth ????

А вот там уже грув начался :fingal:

_________________


Top
 Profile E-mail  
 
Display posts from previous:  Sort by  
Post new topic Reply to topic  [ 7 posts ] 

All times are UTC + 3 hours


Who is online

Users browsing this forum: No registered users and 2 guests


You cannot post new topics in this forum
You cannot reply to topics in this forum
You cannot edit your posts in this forum
You cannot delete your posts in this forum
You cannot post attachments in this forum

Search for:
Яндекс.Метрика
Powered by phpBB © 2000, 2002, 2005, 2007 phpBB Group