\m/ 80's metal \m/

Информационно-аналитический форум "80 см пыли" (In Search We Trust) "У нас никто никуда не спешит"
Железнодорожная биржа - RailAgent
It is currently 22 Aug 2017

All times are UTC + 3 hours

Spoiler
Chat - temporary registration for foreign users (please leave your application here)







Post new topic Reply to topic  [ 11 posts ] 
Author Message
 
PostPosted: 22 Apr 2010 
ыыыы
User avatar
Joined: 17 May 2009
Posts: 952
Lоcаtion: Пушкино, МО
Age: 38
Name: Дмитрий
Image


Жанр: Heavy Metal
Происхождение исполнителя: США
Год издания: 1986
Год издания данного носителя: 1993
Страна-производитель носителя: Япония
Аудио кодек: FLAC
Тип рипа: image+.cue
Битрейт аудио: lossless
Продолжительность: 48:06
Рип: Собственный
Лейбл: CHRISALIS/EMI
Каталоговый номер: TOCP-7972
Матрица: TOCP-7972 1A1 TO (TOSHIBA)

Треклист:
1. Boyz Are Gonna Rock 04:54
2. Shoot U Full of Love 04:44
3. No Substitute 03:52
4. Animal 05:33
5. Twisted 04:49
6. Do You Wanna Make Love 03:23
7. Back on the Streets 04:50
8. I Wanna Be Your Victim 04:36
9. Baby-O 03:43
10. Invasion 07:50


"Куй"
REM GENRE "Hard Rock"
REM DATE 1986
REM DISCID 7E0B460A
REM COMMENT "ExactAudioCopy v0.99pb5"
PERFORMER "Vinnie Vincent Invasion"
TITLE "Vinnie Vincent Invasion [TOCP-7972] "
FILE "Vinnie Vincent Invasion - Vinnie Vincent Invasion [TOCP-7972].flac" WAVE
TRACK 01 AUDIO
TITLE "Boyz Are Gonna Rock"
PERFORMER "Vinnie Vincent Invasion"
INDEX 01 00:00:00
TRACK 02 AUDIO
TITLE "Shoot You Full Of Love"
PERFORMER "Vinnie Vincent Invasion"
INDEX 01 04:52:67
TRACK 03 AUDIO
TITLE "No Substitute"
PERFORMER "Vinnie Vincent Invasion"
INDEX 01 09:36:07
TRACK 04 AUDIO
TITLE "Animal"
PERFORMER "Vinnie Vincent Invasion"
INDEX 01 13:28:25
TRACK 05 AUDIO
TITLE "Twisted"
PERFORMER "Vinnie Vincent Invasion"
INDEX 01 19:00:37
TRACK 06 AUDIO
TITLE "Do You Wanna Make Love"
PERFORMER "Vinnie Vincent Invasion"
INDEX 00 23:48:12
INDEX 01 23:49:62
TRACK 07 AUDIO
TITLE "Back On The Streets"
PERFORMER "Vinnie Vincent Invasion"
INDEX 01 27:12:12
TRACK 08 AUDIO
TITLE "I Wanna Be Your Victim"
PERFORMER "Vinnie Vincent Invasion"
INDEX 01 32:00:42
TRACK 09 AUDIO
TITLE "Baby-O"
PERFORMER "Vinnie Vincent Invasion"
INDEX 01 36:35:45
TRACK 10 AUDIO
TITLE "Invasion"
PERFORMER "Vinnie Vincent Invasion"
INDEX 01 40:17:60


"Лог"
Exact Audio Copy V0.99 prebeta 5 from 4. May 2009

EAC extraction logfile from 22. April 2010, 10:11

Vinnie Vincent Invasion / Vinnie Vincent Invasion [TOCP-7972]

Used drive : Optiarc DVD RW AD-7200A Adapter: 0 ID: 0

Read mode : Secure
Utilize accurate stream : Yes
Defeat audio cache : Yes
Make use of C2 pointers : No

Read offset correction : 48
Overread into Lead-In and Lead-Out : No
Fill up missing offset samples with silence : Yes
Delete leading and trailing silent blocks : No
Null samples used in CRC calculations : Yes
Used interface : Native Win32 interface for Win NT & 2000

Used output format : User Defined Encoder
Selected bitrate : 128 kBit/s
Quality : High
Add ID3 tag : No
Command line compressor : C:\Program Files\Exact Audio Copy\Flac\flac.exe
Additional command line options : -8 -V -T "artist=%a" -T "title=%t" -T "album=%g" -T "date=%y" -T "tracknumber=%n" -T "genre=%m" -T "comment=EAC 0.9beta4 / FLAC 1.1.0 q6" %s


TOC of the extracted CD

Track | Start | Length | Start sector | End sector
---------------------------------------------------------
1 | 0:00.00 | 4:52.67 | 0 | 21966
2 | 4:52.67 | 4:43.15 | 21967 | 43206
3 | 9:36.07 | 3:52.18 | 43207 | 60624
4 | 13:28.25 | 5:32.12 | 60625 | 85536
5 | 19:00.37 | 4:49.25 | 85537 | 107236
6 | 23:49.62 | 3:22.25 | 107237 | 122411
7 | 27:12.12 | 4:48.30 | 122412 | 144041
8 | 32:00.42 | 4:35.03 | 144042 | 164669
9 | 36:35.45 | 3:42.15 | 164670 | 181334
10 | 40:17.60 | 7:48.50 | 181335 | 216484


Range status and errors

Selected range

Filename Y:\Музыка\Vinnie Vincent Invasion\1986 Vinnie Vincent Invasion\Vinnie Vincent Invasion - Vinnie Vincent Invasion [TOCP-7972].wav

Peak level 100.0 %
Range quality 100.0 %
Copy CRC 67D93A12
Copy OK

No errors occurred

End of status report


Состав:
Robert Fleischman: Vocals
Vinnie Vincent: Guitars; vocals
Dana Strum: Bass; backing vocals
Bobby Rock: Drums


Народ

_________________
Витасу до Даймонда как Алсу до Руссоса | При переразмещении - спрашивать разрешение!!


Top
 Profile  
 
 
PostPosted: 22 Apr 2010 
дядя Миша
User avatar
Joined: 17 Oct 2008
Posts: 2554
Lоcаtion: USSR
Age: 54
Name: Khy
отличный альбом!


Top
 Profile  
 
 
PostPosted: 06 Jul 2012 
Зарегился вот...
Joined: 06 Jul 2012
Posts: 5
Lоcаtion: USA
Name: Carlos Marti
And where is the download link?


Top
 Profile E-mail  
 
 
PostPosted: 06 Jul 2012 
Хиппей (support team)
User avatar
Joined: 30 Jul 2007
Posts: 92353
Lоcаtion: Киев (Kyiv, UA)
Age: 44
Name: Andrey
http://rutracker.org/forum/viewtopic.php?t=2916093

Soon reuploaded. If you can not download from torrents :vic:

_________________


Top
 Profile E-mail  
 
 
PostPosted: 06 Jul 2012 
Зарегился вот...
Joined: 06 Jul 2012
Posts: 5
Lоcаtion: USA
Name: Carlos Marti
Scatterbrain wrote:
http://rutracker.org/forum/viewtopic.php?t=2916093

Soon reuploaded. If you can not download from torrents :vic:


Thank you but.. I am downloading that one but it doesn't have any seeders, getting stuck at 90% for 24hrs.

I would be eternally in debt with anyone who could re-upload this release. :thanx:


Top
 Profile E-mail  
 
 
PostPosted: 06 Jul 2012 
Хиппей (support team)
User avatar
Joined: 30 Jul 2007
Posts: 92353
Lоcаtion: Киев (Kyiv, UA)
Age: 44
Name: Andrey
cmarti wrote:
I am downloading that one but it doesn't have any seeders, getting stuck at 90% for 24hrs.

just 90%? =)

Image

_________________


Top
 Profile E-mail  
 
 
PostPosted: 06 Jul 2012 
Зарегился вот...
Joined: 06 Jul 2012
Posts: 5
Lоcаtion: USA
Name: Carlos Marti
Scatterbrain wrote:
cmarti wrote:
I am downloading that one but it doesn't have any seeders, getting stuck at 90% for 24hrs.

just 90%? =)

Image


Thank you!! I see you are seeding for me :-)

It's downloading at 3kbps right now, It will take a couple of hours but will finish.

You rock! :true:


Top
 Profile E-mail  
 
 
PostPosted: 06 Jul 2012 
Хиппей (support team)
User avatar
Joined: 30 Jul 2007
Posts: 92353
Lоcаtion: Киев (Kyiv, UA)
Age: 44
Name: Andrey
I'll maximum uploads and simultaneously upload files to Multiupload...

_________________


Top
 Profile E-mail  
 
 
PostPosted: 06 Jul 2012 
Зарегился вот...
Joined: 06 Jul 2012
Posts: 5
Lоcаtion: USA
Name: Carlos Marti
Scatterbrain wrote:
I'll maximum uploads and simultaneously upload files to Multiupload...



Thank you :dance:


Top
 Profile E-mail  
 
 
PostPosted: 06 Jul 2012 
Хиппей (support team)
User avatar
Joined: 30 Jul 2007
Posts: 92353
Lоcаtion: Киев (Kyiv, UA)
Age: 44
Name: Andrey
mirror: MultiUp l Narod

_________________


Top
 Profile E-mail  
 
 
PostPosted: 06 Jul 2012 
Зарегился вот...
Joined: 06 Jul 2012
Posts: 5
Lоcаtion: USA
Name: Carlos Marti
Scatterbrain wrote:
mirror: MultiUp l Narod



Thank you!

These releases sound way better that any other Vinnie Vincent release. :meloman:


Top
 Profile E-mail  
 
Display posts from previous:  Sort by  
Post new topic Reply to topic  [ 11 posts ] 

All times are UTC + 3 hours


Who is online

Users browsing this forum: No registered users and 1 guest


You cannot post new topics in this forum
You cannot reply to topics in this forum
You cannot edit your posts in this forum
You cannot delete your posts in this forum
You cannot post attachments in this forum

Search for:
Яндекс.Метрика
Powered by phpBB © 2000, 2002, 2005, 2007 phpBB Group