\m/ 80's metal \m/

Информационно-аналитический форум "80 см пыли" (In Search We Trust) "У нас никто никуда не спешит"
Железнодорожная биржа - RailAgent
It is currently 20 Oct 2017

All times are UTC + 3 hours

Spoiler
Chat - temporary registration for foreign users (please leave your application here)







Post new topic Reply to topic  [ 8 posts ] 
Author Message
 
PostPosted: 30 Mar 2010 
Я набрал 1000 сообщений!
User avatar
Joined: 25 Dec 2008
Posts: 1545
Age: 42
Name: Павел
Vanadium-Metal Rock/A Race with the Devil
Country:Italy
Year:1982/83
Genre:Heavy Metal
Size:433 Mb
Format:APE+cue+log

Image
Image

log
Отчёт EAC об извлечении, выполненном 30. марта 2010, 17:40 для диска:
Vanadium / Metal Rock/A Race with the Devil

Дисковод: TSSTcorpCD/DVDW SH-S182D Adapter: 0 ID: 0
Режим чтения: Достоверный (C2: нет, Точный поток: да, Отключение кэша: да)
Коррекция смещения при чтении: 6
Способность читать области Lead-in и Lead-out : Нет

Выходной формат: Внутренние WAV-операции
44.100 Гц; 16 бит; стерео

Другие параметры:
Заполнение пропущенных сэмплов тишиной : Да
Удаление блоков с тишиной в начале и конце : Нет
Установленный внешний ASPI-интерфейс


Характеристики диапазона извлечения и сообщения об ошибках
Выбранный диапазон
Имя файла D:\музыка new\Новая папка 4\Vanadium-Metal Rock+A Race with the Devil\Vanadium - Metal Rock A Race with the Devil.wav

Пиковый уровень 81.0 %
Качество диапазона 100.0 %
CRC D184BD4E
Копирование... OK

Ошибок не произошло

Конец отчёта

cue
REM DISCID F90FED10
REM COMMENT "ExactAudioCopy v0.95b4"
PERFORMER "Vanadium"
TITLE "Metal Rock/A Race with the Devil"
FILE "Vanadium - Metal Rock A Race with the Devil.wav" WAVE
TRACK 01 AUDIO
TITLE "We Want Live Rock 'n' Roll"
PERFORMER "Vanadium"
FLAGS DCP
INDEX 01 00:00:00
TRACK 02 AUDIO
TITLE "I Never Lost Control"
PERFORMER "Vanadium"
FLAGS DCP
INDEX 00 04:09:03
INDEX 01 04:11:03
TRACK 03 AUDIO
TITLE "Heavy Metal"
PERFORMER "Vanadium"
FLAGS DCP
INDEX 00 06:52:45
INDEX 01 06:54:45
TRACK 04 AUDIO
TITLE "Make Me Feel Better"
PERFORMER "Vanadium"
FLAGS DCP
INDEX 00 11:30:47
INDEX 01 11:32:47
TRACK 05 AUDIO
TITLE "Looking for Love"
PERFORMER "Vanadium"
FLAGS DCP
INDEX 00 14:40:04
INDEX 01 14:42:04
TRACK 06 AUDIO
TITLE "On Fire"
PERFORMER "Vanadium"
FLAGS DCP
INDEX 00 17:19:69
INDEX 01 17:21:69
TRACK 07 AUDIO
TITLE "Running on the Road"
PERFORMER "Vanadium"
FLAGS DCP
INDEX 00 21:23:23
INDEX 01 21:25:23
TRACK 08 AUDIO
TITLE "Queen of the Night"
PERFORMER "Vanadium"
FLAGS DCP
INDEX 00 24:39:38
INDEX 01 24:41:38
TRACK 09 AUDIO
TITLE "Get Up, Shake Up"
PERFORMER "Vanadium"
FLAGS DCP
INDEX 00 29:05:13
INDEX 01 29:07:13
TRACK 10 AUDIO
TITLE "I Gotta Clash with You"
PERFORMER "Vanadium"
FLAGS DCP
INDEX 00 33:41:52
INDEX 01 33:43:52
TRACK 11 AUDIO
TITLE "Don't Be Looking Back"
PERFORMER "Vanadium"
FLAGS DCP
INDEX 00 38:20:40
INDEX 01 38:22:40
TRACK 12 AUDIO
TITLE "A Race with the Devil"
PERFORMER "Vanadium"
FLAGS DCP
INDEX 00 44:34:03
INDEX 01 44:36:03
TRACK 13 AUDIO
TITLE "Running Wild"
PERFORMER "Vanadium"
FLAGS DCP
INDEX 00 48:59:39
INDEX 01 49:01:39
TRACK 14 AUDIO
TITLE "Fire Trails"
PERFORMER "Vanadium"
FLAGS DCP
INDEX 00 54:12:72
INDEX 01 54:14:72
TRACK 15 AUDIO
TITLE "Outside of Society"
PERFORMER "Vanadium"
FLAGS DCP
INDEX 00 58:03:15
INDEX 01 58:05:15
TRACK 16 AUDIO
TITLE "Russian Roulette"
PERFORMER "Vanadium"
FLAGS DCP
INDEX 00 63:14:53
INDEX 01 63:16:53

Tracklist:
1.We Want Live Rock 'n' Roll
2.I Never Lost Control
3.Heavy Metal
4.Make Me Feel Better
5.Looking for Love
6.On Fire
7.Running on the Road
8.Queen of the Night
9.Get Up, Shake Up
10.I Gotta Clash with You
11.Don't Be Looking Back
12.A Race with the Devil
13.Running Wild
14.Fire Trails
15.Outside of Society
16.Russian Roulette

Vanadium-Metal Rock+A Race with the Devil.rar

Бутлежное издание.Нормальных сканов,увы,не нашел.Ранние альбомы намного лучше,чем записанные в конце 80-х.Здесь типичный хэви в духе NWOBHM,позже группа сместилась в сторону хард-рока и АОРа.


Top
 Profile  
 
 
PostPosted: 31 Mar 2010 
Почётный металлург
User avatar
Joined: 15 Sep 2007
Posts: 4356
Lоcаtion: Хабаровск
Age: 57
Name: чуть выше
Спасибо, Паша! А как понять "бутлежное издание"? Пиратки что ли? Или с мп3?

_________________
Коль будешь людей ты ослами честить,
тебе человеком меж них не прослыть!
(Саади, персидский поэт, 13в.)


Top
 Profile  
 
 
PostPosted: 31 Mar 2010 
Я набрал 1000 сообщений!
User avatar
Joined: 25 Dec 2008
Posts: 1545
Age: 42
Name: Павел
Бутлег-это нелегальное издание,т.е. по-нашему пиратское.Но многие зарубежные магазины торгуют такими дисками и вместо лэйбла пишут:private release.


Top
 Profile  
 
 
PostPosted: 31 Mar 2010 
хард н хэвщик (support team)
User avatar
Joined: 02 Jun 2008
Posts: 16879
Lоcаtion: Н.Новгород
Age: 30
Name: Артем
hawkhunter wrote:
вместо лэйбла пишут:private release.
ага, об этом еще Михаил Varvaar говорил. Только вводят в заблуждение.


Top
 Profile  
 
 
PostPosted: 31 Mar 2010 
metallpaparazzy
User avatar
Joined: 20 Dec 2009
Posts: 674
Lоcаtion: Днепропетровск
Age: 42
Name: Геннадий
позволю себе слегонца поумничать :umnik:
hawkhunter wrote:
Бутлег-это нелегальное издание

то есть изданное без разрешения автора, или правообладателя. но может быть на вполне вменяемой фирме издано (хотя такое бывает редко, так как такие фирмы дорожат репутацией)
hawkhunter wrote:
по-нашему пиратское

а енто посто сдиралово всего, чевой можно продать: хоть с официальных изданий (в последнее время дерут довольно качественно -- конкуренция :pardon: ), хоть какая-то раритетная отсебятина. но, так как наши предприниматели не любят напрягатся, то штампуют чаще всего уже готовые восстребованые позиции и новинки. я такие цд называю ЛЕВАНДОС :fingal:


Top
 Profile E-mail  
 
 
PostPosted: 02 Apr 2010 
Прокъмитолист
User avatar
Joined: 12 Aug 2007
Posts: 6172
Lоcаtion: Санктъ-Петербуркъ
Age: 50
Name: Олекъ
спасибо, Паш! :thanx:

_________________
прокъметол - это музыко, от которово есть прок (ы)


Top
 Profile  
 
 
PostPosted: 06 Apr 2010 
Old Time Rock`n`Roll
User avatar
Joined: 23 Jun 2008
Posts: 3314
Warnings: 1
Lоcаtion: г.Ульяновск
Age: 39
Name: Константин
Спасибо за альбом :thanx:


Top
 Profile  
 
 
PostPosted: 22 Jul 2017 
Доктор энтомологии
User avatar
Joined: 22 Jan 2009
Posts: 8166
Lоcаtion: Даугавпилс
Age: 42
Name: Алексей
Протащил альбом адово, да и группа в целом. Хардовый такой, нафталиновый, хэви с клавишами, под Рэйнбоу,Пёрпл, Тин Лиззи и ранний Прист :meloman:


Top
 Profile  
 
Display posts from previous:  Sort by  
Post new topic Reply to topic  [ 8 posts ] 

All times are UTC + 3 hours


Who is online

Users browsing this forum: No registered users and 4 guests


You cannot post new topics in this forum
You cannot reply to topics in this forum
You cannot edit your posts in this forum
You cannot delete your posts in this forum
You cannot post attachments in this forum

Search for:
Яндекс.Метрика
Powered by phpBB © 2000, 2002, 2005, 2007 phpBB Group