\m/ 80's metal \m/

Информационно-аналитический форум "80 см пыли" (In Search We Trust) "У нас никто никуда не спешит"
Железнодорожная биржа - RailAgent
It is currently 18 Aug 2017

All times are UTC + 3 hours

Spoiler
Chat - temporary registration for foreign users (please leave your application here)







Post new topic Reply to topic  [ 24 posts ]  Go to page 1, 2  Next
Author Message
 
PostPosted: 29 Mar 2010 
хард н хэвщик (support team)
User avatar
Joined: 02 Jun 2008
Posts: 16879
Lоcаtion: Н.Новгород
Age: 30
Name: Артем
* Перезалейте, пожалуйста: | Re-up please:
Vanadium - 1989 - Seventheaven @ lossless


Image

Vanadium - 1989 - Seventheaven

формат: APE+CUE, LOG отсутствует
издание: бутлег

1. Italian Girl 03:17
2. Natural Born Loner 04:57
3. Take my Blues Away 04:48
4. Seventh Heaven 04:34
5. Bad Attitude 04:27
6. One Way Ride 03:27
7. Kill the Killer 03:08
8. Step Ahead of Time 03:07
9. To Be Number One 03:09
10. Warriors 04:07

коверочки можно забрать здесь: http://www.hhworld.org/first-press-heav ... -t3571.htm

Спасибо за лося моему земляку :true:

Vanadium 1989 Seventheaven APE.rar (252.76 MB) http://www.multiupload.com/ST807KPD7S


Top
 Profile  
 
 
PostPosted: 30 Mar 2010 
metallpaparazzy
User avatar
Joined: 20 Dec 2009
Posts: 674
Lоcаtion: Днепропетровск
Age: 42
Name: Геннадий
McKagan wrote:
издание: бутлег

енто типа, с левандоса, или как? в дискографии на МА альбом присутствует...
а, какая разница? первый альбомец ихний понравился, возьму и ентот :true:
:thanx:


Top
 Profile E-mail  
 
 
PostPosted: 30 Mar 2010 
Почётный металлург
User avatar
Joined: 15 Sep 2007
Posts: 4347
Lоcаtion: Хабаровск
Age: 57
Name: чуть выше
Благодарю!

_________________
Коль будешь людей ты ослами честить,
тебе человеком меж них не прослыть!
(Саади, персидский поэт, 13в.)


Top
 Profile  
 
 
PostPosted: 30 Mar 2010 
хард н хэвщик (support team)
User avatar
Joined: 02 Jun 2008
Posts: 16879
Lоcаtion: Н.Новгород
Age: 30
Name: Артем
metallroll wrote:
енто типа, с левандоса, или как? в дискографии на МА альбом присутствует...
официального издания на компакт-диске никогда не было, - я это имел в виду.


Top
 Profile  
 
 
PostPosted: 31 Mar 2010 
metallpaparazzy
User avatar
Joined: 20 Dec 2009
Posts: 674
Lоcаtion: Днепропетровск
Age: 42
Name: Геннадий
McKagan wrote:
metallroll пишет:
енто типа, с левандоса, или как? в дискографии на МА альбом присутствует...
официального издания на компакт-диске никогда не было, - я это имел в виду.

да я ужо допер... :umnik:


Top
 Profile E-mail  
 
 
PostPosted: 02 Apr 2010 
Прокъмитолист
User avatar
Joined: 12 Aug 2007
Posts: 6094
Lоcаtion: Санктъ-Петербуркъ
Age: 49
Name: Олекъ
:thanx:

_________________
прокъметол - это музыко, от которово есть прок (ы)


Top
 Profile  
 
 
PostPosted: 02 Apr 2010 
Труъ
User avatar
Joined: 14 Jul 2009
Posts: 158
Lоcаtion: Hell Is Here
Age: 47
Name: Adriano
Thank You ! :true:


Top
 Profile E-mail  
 
 
PostPosted: 06 Dec 2011 
хард н хэвщик (support team)
User avatar
Joined: 02 Jun 2008
Posts: 16879
Lоcаtion: Н.Новгород
Age: 30
Name: Артем
vanadium scans.rar


Top
 Profile  
 
 
PostPosted: 06 Dec 2011 
Персональный статус
User avatar
Joined: 22 Oct 2011
Posts: 352
Lоcаtion: Moscow
Age: 58
Name: Серёжа
:thanx:


Top
 Profile E-mail  
 
 
PostPosted: 14 Dec 2011 
Хиппей (support team)
User avatar
Joined: 30 Jul 2007
Posts: 92233
Lоcаtion: Киев (Kyiv, UA)
Age: 44
Name: Andrey
:thanx:

_________________


Top
 Profile E-mail  
 
 
PostPosted: 02 Aug 2012 
Зарегился вот...
Joined: 16 Apr 2011
Posts: 2
Lоcаtion: italy
Name: michele
hello...
it'll be possible re-upload this dead link...

please

thanxx....

:vic:


Top
 Profile E-mail  
 
 
PostPosted: 02 Aug 2012 
Хиппей (support team)
User avatar
Joined: 30 Jul 2007
Posts: 92233
Lоcаtion: Киев (Kyiv, UA)
Age: 44
Name: Andrey
There is only a double album - Born to Fight + Game Over
It he or not?... :vic:

_________________


Top
 Profile E-mail  
 
 
PostPosted: 02 Aug 2012 
хард н хэвщик (support team)
User avatar
Joined: 02 Jun 2008
Posts: 16879
Lоcаtion: Н.Новгород
Age: 30
Name: Артем
Отвечу за Michele - конечно нет :esel:


Top
 Profile  
 
 
PostPosted: 20 Feb 2015 
Труъ
User avatar
Joined: 27 Feb 2009
Posts: 184
Lоcаtion: Питер
Age: 50
Name: Олег
Перезалейте пожалуйста !


Top
 Profile  
 
 
PostPosted: 22 Feb 2015 
Хиппей (support team)
User avatar
Joined: 30 Jul 2007
Posts: 92233
Lоcаtion: Киев (Kyiv, UA)
Age: 44
Name: Andrey
Нашёл у себя пока только сканы... :vic:

зы. Ага, и лосик есть. К обедне завтра заброшу.

_________________


Top
 Profile E-mail  
 
 
PostPosted: 22 Feb 2015 
Студентег
User avatar
Joined: 28 Aug 2007
Posts: 4895
Lоcаtion: г. Москва
Age: 28
Name: Дима
:true: :true:


Top
 Profile E-mail  
 
 
PostPosted: 22 Feb 2015 
Хиппей (support team)
User avatar
Joined: 30 Jul 2007
Posts: 92233
Lоcаtion: Киев (Kyiv, UA)
Age: 44
Name: Andrey
Блин... :fingal: забыл, ща сделаю :fingal:

_________________


Top
 Profile E-mail  
 
 
PostPosted: 22 Feb 2015 
Хиппей (support team)
User avatar
Joined: 30 Jul 2007
Posts: 92233
Lоcаtion: Киев (Kyiv, UA)
Age: 44
Name: Andrey
Vanadium - Born To Fight + Game Over [ape]

Image Image

mirror: Narod l M-Cloud

log
Отчёт EAC об извлечении, выполненном 12. сентября 2010, 20:14 для диска:
Vanadium / Born to fight + Game over

Дисковод: TSSTcorpCD/DVDW SH-S182D Adapter: 0 ID: 0
Режим чтения: Достоверный (C2: нет, Точный поток: да, Отключение кэша: да)
Коррекция смещения при чтении: 6
Способность читать области Lead-in и Lead-out : Нет

Выходной формат: Внутренние WAV-операции
44.100 Гц; 16 бит; стерео

Другие параметры:
Заполнение пропущенных сэмплов тишиной : Да
Удаление блоков с тишиной в начале и конце : Нет
Установленный внешний ASPI-интерфейс


Характеристики диапазона извлечения и сообщения об ошибках
Выбранный диапазон
Имя файла C:\Program Files\загрузки\Vanadium\Vanadium - Born to fight + Game over.wav

Пиковый уровень 100.0 %
Качество диапазона 100.0 %
CRC 084DF900
Копирование... OK

Ошибок не произошло

Конец отчёта

cue
REM DISCID DD10EC10
REM COMMENT "ExactAudioCopy v0.95b4"
PERFORMER "Vanadium"
TITLE "Born to fight + Game over"
FILE "Vanadium - Born to fight + Game over.wav" WAVE
TRACK 01 AUDIO
TITLE "Run too Fast"
PERFORMER "Vanadium"
FLAGS DCP
INDEX 01 00:00:00
TRACK 02 AUDIO
TITLE "Still Got Time"
PERFORMER "Vanadium"
FLAGS DCP
INDEX 00 05:18:34
INDEX 01 05:20:34
TRACK 03 AUDIO
TITLE "Before it's Too Late"
PERFORMER "Vanadium"
FLAGS DCP
INDEX 00 09:23:54
INDEX 01 09:25:54
TRACK 04 AUDIO
TITLE "Easy Way to Love"
PERFORMER "Vanadium"
FLAGS DCP
INDEX 00 13:36:43
INDEX 01 13:38:43
TRACK 05 AUDIO
TITLE "I was Born to Rock"
PERFORMER "Vanadium"
FLAGS DCP
INDEX 00 19:18:43
INDEX 01 19:20:43
TRACK 06 AUDIO
TITLE "Never Before"
PERFORMER "Vanadium"
FLAGS DCP
INDEX 00 23:18:53
INDEX 01 23:20:53
TRACK 07 AUDIO
TITLE "Ridge Farm"
PERFORMER "Vanadium"
FLAGS DCP
INDEX 00 26:50:70
INDEX 01 26:52:70
TRACK 08 AUDIO
TITLE "Arms in the Air"
PERFORMER "Vanadium"
FLAGS DCP
INDEX 00 31:11:33
INDEX 01 31:13:33
TRACK 09 AUDIO
TITLE "Streets of Danger"
PERFORMER "Vanadium"
FLAGS DCP
INDEX 00 37:45:68
INDEX 01 37:47:68
TRACK 10 AUDIO
TITLE "I'm Leaving You"
PERFORMER "Vanadium"
FLAGS DCP
INDEX 00 42:53:23
INDEX 01 42:55:23
TRACK 11 AUDIO
TITLE "Wartrains"
PERFORMER "Vanadium"
FLAGS DCP
INDEX 00 46:25:12
INDEX 01 46:27:12
TRACK 12 AUDIO
TITLE "Too Young to Die"
PERFORMER "Vanadium"
FLAGS DCP
INDEX 00 50:36:26
INDEX 01 50:38:26
TRACK 13 AUDIO
TITLE "Pretty Heartbreaker"
PERFORMER "Vanadium"
FLAGS DCP
INDEX 00 54:37:14
INDEX 01 54:39:14
TRACK 14 AUDIO
TITLE "The Hunter"
PERFORMER "Vanadium"
FLAGS DCP
INDEX 00 58:30:33
INDEX 01 58:32:33
TRACK 15 AUDIO
TITLE "Don't Let Your Master Down"
PERFORMER "Vanadium"
FLAGS DCP
INDEX 00 62:18:19
INDEX 01 62:20:19
TRACK 16 AUDIO
TITLE "Game Over"
PERFORMER "Vanadium"
FLAGS DCP
INDEX 00 68:11:41
INDEX 01 68:13:41

Image Image Image

_________________


Top
 Profile E-mail  
 
 
PostPosted: 22 Feb 2015 
Хиппей (support team)
User avatar
Joined: 30 Jul 2007
Posts: 92233
Lоcаtion: Киев (Kyiv, UA)
Age: 44
Name: Andrey
Oops... Или это другая группа? :lloo: :crazy:

_________________


Top
 Profile E-mail  
 
 
PostPosted: 22 Feb 2015 
Хиппей (support team)
User avatar
Joined: 30 Jul 2007
Posts: 92233
Lоcаtion: Киев (Kyiv, UA)
Age: 44
Name: Andrey
Ага, она же http://www.metal-archives.com/bands/Van ... iscography
Но лося альбома 89 года у меня нету :vic:

_________________


Top
 Profile E-mail  
 
Display posts from previous:  Sort by  
Post new topic Reply to topic  [ 24 posts ]  Go to page 1, 2  Next

All times are UTC + 3 hours


Who is online

Users browsing this forum: No registered users and 1 guest


You cannot post new topics in this forum
You cannot reply to topics in this forum
You cannot edit your posts in this forum
You cannot delete your posts in this forum
You cannot post attachments in this forum

Search for:
Яндекс.Метрика
Powered by phpBB © 2000, 2002, 2005, 2007 phpBB Group