\m/ 80's metal \m/

Информационно-аналитический форум "80 см пыли" (In Search We Trust) "У нас никто никуда не спешит"
Железнодорожная биржа - RailAgent
It is currently 11 Dec 2017

All times are UTC + 3 hours

Spoiler
Chat - temporary registration for foreign users (please leave your application here)







Post new topic Reply to topic  [ 4 posts ] 
Author Message
 
PostPosted: 27 Feb 2010 
труъ антисионист
User avatar
Joined: 01 Aug 2007
Posts: 4529
Lоcаtion: Откуда и большинство из нас
Age: 37
Name: Дядя Вова
Image
Группа: Veni Domine
Альбом: Fall Babylon Fall
Год: 1991
Лейбл: Edge Records
Стиль: Classic Doom Metal
Страна: SWE
Формат: Flac/Log/Cue
Размер: 469 Mb

******************************************************************************

Line Up:

Vocals - Fredrik Ohlsson
Guitars - Torbj�rn Weinesj�
Bass - Magnus Thorman
Keyboards - P-A Danielsson
Drums - Thomas Weinesj�



Tracks:
1. Face of the Prosecutor 08:14
2. King of the Jews 08:12
3. In the Day of the Sentinel 07:14
4. Wisdom Calls 06:44
5. Armageddon 07:34
6. O Great City 08:05
7. The Chronicle of the Seven Seals 21:21


Total playing time: 01:11:28

LOG
Exact Audio Copy V0.99 prebeta 5 from 4. May 2009

EAC extraction logfile from 1. January 2010, 17:34

Veni Domine / Fall Babylon Fall

Used drive : TOSHIBA DVD-ROM SD-M1612 Adapter: 1 ID: 1

Read mode : Secure
Utilize accurate stream : Yes
Defeat audio cache : Yes
Make use of C2 pointers : No

Read offset correction : -472
Overread into Lead-In and Lead-Out : No
Fill up missing offset samples with silence : Yes
Delete leading and trailing silent blocks : No
Null samples used in CRC calculations : Yes
Used interface : Native Win32 interface for Win NT & 2000

Used output format : User Defined Encoder
Selected bitrate : 40 kBit/s
Quality : High
Add ID3 tag : No
Command line compressor : C:\Program Files\Exact Audio Copy\Flac\flac.exe
Additional command line options : -6 -V %s


TOC of the extracted CD

Track | Start | Length | Start sector | End sector
---------------------------------------------------------
1 | 0:00.00 | 8:13.20 | 0 | 36994
2 | 8:13.20 | 8:11.37 | 36995 | 73856
3 | 16:24.57 | 7:13.03 | 73857 | 106334
4 | 23:37.60 | 6:43.32 | 106335 | 136591
5 | 30:21.17 | 7:34.13 | 136592 | 170654
6 | 37:55.30 | 8:04.22 | 170655 | 206976
7 | 45:59.52 | 21:17.05 | 206977 | 302756


Range status and errors

Selected range

Filename C:\Lossless rips by twistedsam\Veni Domine - Fall Babylon Fall (1992)\Veni Domine - Fall Babylon Fall.wav

Peak level 99.0 %
Range quality 99.8 %
Copy CRC D5807AAA
Copy OK

No errors occurred


AccurateRip summary

Track 1 accurately ripped (confidence 1) [040368EC]
Track 2 accurately ripped (confidence 1) [BFF0C97A]
Track 3 cannot be verified as accurate (confidence 1) [45F14792], AccurateRip returned [6F80FEED]
Track 4 accurately ripped (confidence 1) [E8849556]
Track 5 accurately ripped (confidence 1) [CB2113F9]
Track 6 accurately ripped (confidence 1) [FA2C9B92]
Track 7 accurately ripped (confidence 1) [304BF20E]

6 track(s) accurately ripped
1 track(s) could not be verified as accurate

Some tracks could not be verified as accurate

End of status report


[youtube]<object width="425" height="344"><param name="movie" value="http://www.youtube.com/v/hdiE4n8DvJQ&hl=ru_RU&fs=1&"></param><param name="allowFullScreen" value="true"></param><param name="allowscriptaccess" value="always"></param><embed src="http://www.youtube.com/v/hdiE4n8DvJQ&hl=ru_RU&fs=1&" type="application/x-shockwave-flash" allowscriptaccess="always" allowfullscreen="true" width="425" height="344"></embed></object>[/youtube]

Релиз от ММТ
===================================DOWNLOAD========================================

Veni Domine - Fall Babylon Fall (1992).rar

_________________
Image
Image


Last edited by Glot on 27 Feb 2010, edited 1 time in total.

Top
 Profile  
 
 
PostPosted: 27 Feb 2010 
Прокъмитолист
User avatar
Joined: 12 Aug 2007
Posts: 6252
Lоcаtion: Санктъ-Петербуркъ
Age: 50
Name: Олекъ
Володь, не смущай народ (в лице меня :crazy: ). это семитрэковое издание, без бонуса :oops:

_________________
прокъметол - это музыко, от которово есть прок (ы)


Top
 Profile  
 
 
PostPosted: 27 Feb 2010 
Хиппей (support team)
User avatar
Joined: 30 Jul 2007
Posts: 96901
Lоcаtion: Киев (Kyiv, UA)
Age: 44
Name: Andrey
Ога, мог бы и с лога трэклист копирнуть :crazy:

_________________


Top
 Profile E-mail  
 
 
PostPosted: 27 Feb 2010 
труъ антисионист
User avatar
Joined: 01 Aug 2007
Posts: 4529
Lоcаtion: Откуда и большинство из нас
Age: 37
Name: Дядя Вова
Упс, подправил :fingal:

_________________
Image
Image


Top
 Profile  
 
Display posts from previous:  Sort by  
Post new topic Reply to topic  [ 4 posts ] 

All times are UTC + 3 hours


Who is online

Users browsing this forum: No registered users and 3 guests


You cannot post new topics in this forum
You cannot reply to topics in this forum
You cannot edit your posts in this forum
You cannot delete your posts in this forum
You cannot post attachments in this forum

Search for:
Яндекс.Метрика
cron
Powered by phpBB © 2000, 2002, 2005, 2007 phpBB Group