\m/ 80's metal \m/

Информационно-аналитический форум "80 см пыли" (In Search We Trust) "У нас никто никуда не спешит"
Me For You - http://me-4u.com
It is currently 20 Sep 2019

All times are UTC + 3 hours

Spoiler
Chat - temporary registration for foreign users (please leave your application here)







Post new topic Reply to topic  [ 26 posts ]  Go to page Previous  1, 2
Author Message
 
PostPosted: 25 Nov 2009 
Я набрал 1000 сообщений!
User avatar
Joined: 25 Dec 2008
Posts: 1545
Age: 44
Name: Павел
* Перезалейте, пожалуйста: | Re-up please:
Villain - Time Machine
Country:USA
Genre:Heavy/Power Metal
Year:2003
Format:APE+cue+log
Size:461 Mb


Image

cue
REM GENRE "Heavy Metal"
REM DATE 2003
REM DISCID C2100E0E
REM COMMENT "ExactAudioCopy v0.99pb4"
PERFORMER "Villain"
TITLE "Time Machine"
FILE "Villain - Time Machine.wav" WAVE
TRACK 01 AUDIO
TITLE "Kamikaze"
PERFORMER "Villain"
FLAGS DCP
INDEX 01 00:00:00
TRACK 02 AUDIO
TITLE "Only Time Will Tell"
PERFORMER "Villain"
FLAGS DCP
INDEX 01 03:51:67
TRACK 03 AUDIO
TITLE "Tie Your Mother Down"
PERFORMER "Villain"
FLAGS DCP
INDEX 01 07:24:73
TRACK 04 AUDIO
TITLE "She'll Make You Fall"
PERFORMER "Villain"
FLAGS DCP
INDEX 01 10:55:39
TRACK 05 AUDIO
TITLE "Kids Of Crime"
PERFORMER "Villain"
FLAGS DCP
INDEX 01 16:52:48
TRACK 06 AUDIO
TITLE "Just Close Your Eyes"
PERFORMER "Villain"
FLAGS DCP
INDEX 01 20:04:58
TRACK 07 AUDIO
TITLE "Thrills In The Night"
PERFORMER "Villain"
FLAGS DCP
INDEX 01 25:57:50
TRACK 08 AUDIO
TITLE "Don't You Forget It"
PERFORMER "Villain"
FLAGS DCP
INDEX 01 30:16:18
TRACK 09 AUDIO
TITLE "Hungry For Glory"
PERFORMER "Villain"
FLAGS DCP
INDEX 01 36:12:42
TRACK 10 AUDIO
TITLE "Loud & Solos"
PERFORMER "Villain"
FLAGS DCP
INDEX 01 40:24:38
TRACK 11 AUDIO
TITLE "Power Of The Night"
PERFORMER "Villain"
FLAGS DCP
INDEX 01 47:50:60
TRACK 12 AUDIO
TITLE "#3"
PERFORMER "Villain"
FLAGS DCP
INDEX 01 51:47:55
TRACK 13 AUDIO
TITLE "Time To Fight"
PERFORMER "Villain"
FLAGS DCP
INDEX 01 58:27:33
TRACK 14 AUDIO
TITLE "If You Can't Rock"
PERFORMER "Villain"
FLAGS DCP
INDEX 01 62:44:50


log
Exact Audio Copy V0.99 prebeta 4 from 23. January 2008

EAC extraction logfile from 13. August 2009, 13:23

Villain / Time Machine

Used drive : PIONEER DVD-RW DVR-212 Adapter: 3 ID: 0

Read mode : Secure
Utilize accurate stream : Yes
Defeat audio cache : Yes
Make use of C2 pointers : No

Read offset correction : 48
Overread into Lead-In and Lead-Out : No
Fill up missing offset samples with silence : Yes
Delete leading and trailing silent blocks : No
Null samples used in CRC calculations : Yes
Used interface : Installed external ASPI interface

Used output format : Internal WAV Routines
Sample format : 44.100 Hz; 16 Bit; Stereo


TOC of the extracted CD

Track | Start | Length | Start sector | End sector
---------------------------------------------------------
1 | 0:00.00 | 3:51.67 | 0 | 17391
2 | 3:51.67 | 3:33.06 | 17392 | 33372
3 | 7:24.73 | 3:30.41 | 33373 | 49163
4 | 10:55.39 | 5:57.09 | 49164 | 75947
5 | 16:52.48 | 3:12.10 | 75948 | 90357
6 | 20:04.58 | 5:52.67 | 90358 | 116824
7 | 25:57.50 | 4:18.43 | 116825 | 136217
8 | 30:16.18 | 5:56.24 | 136218 | 162941
9 | 36:12.42 | 4:11.71 | 162942 | 181837
10 | 40:24.38 | 7:26.22 | 181838 | 215309
11 | 47:50.60 | 3:56.70 | 215310 | 233079
12 | 51:47.55 | 6:39.53 | 233080 | 263057
13 | 58:27.33 | 4:17.17 | 263058 | 282349
14 | 62:44.50 | 5:45.28 | 282350 | 308252


Range status and errors

Selected range

Filename D:\Villain\2003 - Time Machine\Villain - Time Machine.wav

Peak level 100.0 %
Range quality 100.0 %
Copy CRC DC5B6D70
Copy OK

No errors occurred

End of status report


Tracklist:
1. Kamikaze
2. Only Time Will Tell
3. Tie Your Mother Down
4. She'll Make You Fall
5. Kids Of Crime
6. Just Close Your Eyes
7. Thrills In The Night
8. Don't You Forget It
9. Hungry For Glory
10. Loud & Solos
11 Power Of The Night
12. #3
13. Time To Fight
14. If You Can't Rock


Переиздание миника "Only Time Will Tell" 1986 года-первые 7 трэков.Остальные композиции-записи "вживую" и на репетициях.У микрофона легендарный Карл Алберт(R.I.P.).
Релиз от Akira с дока Игоря(Gosha776) "Лоси".

Villain - Time Machine(2003).rar


Top
 Profile  
 
 
PostPosted: 20 Jul 2018 
Хиппей (support team)
User avatar
Joined: 30 Jul 2007
Posts: 114391
Lоcаtion: Киев (Kyiv, UA)
Age: 46
Name: Andrey
Ага :dance:

_________________


Top
 Profile E-mail  
 
 
PostPosted: 20 Jul 2018 
Зарегился вот...
Joined: 06 May 2011
Posts: 9
Lоcаtion: GREECE
Name: Alex
Thank you very much. :meloman:


Top
 Profile E-mail  
 
 
PostPosted: 20 Jul 2018 
Хиппей (support team)
User avatar
Joined: 30 Jul 2007
Posts: 114391
Lоcаtion: Киев (Kyiv, UA)
Age: 46
Name: Andrey
О, южане подтянулись снова :kro:

_________________


Top
 Profile E-mail  
 
 
PostPosted: 21 Jul 2018 
Хиппей (support team)
User avatar
Joined: 30 Jul 2007
Posts: 114391
Lоcаtion: Киев (Kyiv, UA)
Age: 46
Name: Andrey
Какой ужасный по качеству звук оказался :( :( :(

Может на оригинальном рипе будет получше?
Просьба перзалить :thanx:

_________________


Top
 Profile E-mail  
 
 
PostPosted: 22 Jul 2018 
Хиппей (support team)
User avatar
Joined: 30 Jul 2007
Posts: 114391
Lоcаtion: Киев (Kyiv, UA)
Age: 46
Name: Andrey
Альбом послушал туда, сюда, обратно и ещё несколько раз.
Ничего особенного - собирательный образ типичных хардэнхэви групп 80-х с уклоном чутка в прог-хард и на грани хэви-пауэра.

6/10

_________________


Top
 Profile E-mail  
 
 
PostPosted: 22 Jul 2018 
Хиппей (support team)
User avatar
Joined: 30 Jul 2007
Posts: 114391
Lоcаtion: Киев (Kyiv, UA)
Age: 46
Name: Andrey
hawkhunter wrote:
Переиздание миника "Only Time Will Tell" 1986 года-первые 7 трэков.

Ой.. Ну, в общем я угадал.

_________________


Top
 Profile E-mail  
 
Display posts from previous:  Sort by  
Post new topic Reply to topic  [ 26 posts ]  Go to page Previous  1, 2

All times are UTC + 3 hours


Who is online

Users browsing this forum: No registered users and 1 guest


You cannot post new topics in this forum
You cannot reply to topics in this forum
You cannot edit your posts in this forum
You cannot delete your posts in this forum
You cannot post attachments in this forum

Search for:
Яндекс.Метрика
Powered by phpBB © 2000, 2002, 2005, 2007 phpBB Group