\m/ 80's metal \m/

Информационно-аналитический форум "80 см пыли" (In Search We Trust) "У нас никто никуда не спешит"
Железнодорожная биржа - RailAgent
It is currently 24 Oct 2017

All times are UTC + 3 hours

Spoiler
Chat - temporary registration for foreign users (please leave your application here)







Post new topic Reply to topic  [ 8 posts ] 
Author Message
 
PostPosted: 26 Oct 2009 
Old Time Rock`n`Roll
User avatar
Joined: 23 Jun 2008
Posts: 3314
Warnings: 1
Lоcаtion: г.Ульяновск
Age: 39
Name: Константин
Vain – On The Line (2005)

Image

Year:2005
Style: Hard Rock
Country: USA
Format: FLAC (tracks) + log + cue + scans & mp3-320
Size: 359 Mb/112 Mb

Tracklist
01. Running On Empty (4:11)
02. So Free Now (5:30)
03. Drag Me (5:02)
04. Last Sin (4:45)
05. On The Line (3:51)
06. Turn To Sand (7:02)
07. Lie For Love (6:04)
08. Cover Me (Just One More Time) (4:31)
09. Slave (5:39)
10. Keep Shining On (3:36)

TPT – 50:05

Line-Up
Ashley Mitchell - Bass
Danny West - Guitars
Davy Vain - Vocals
Jamie Scott - Guitars
Louie Senor - Drums

Album Credits:
Produced: Davy Vain
Co-Produced: Vain
Engineered: Davy Vain
Mixed: Davy Vain

Additional Players:
Matt Cunitz Fender Rhodes, Hammond Organ # 4
Craig Behrhorst Rhythm Guitar # 6


Spectres
Image

Log
Exact Audio Copy V0.99 prebeta 5 from 4. May 2009

EAC extraction logfile from 30. July 2009, 2:27

Vain / On The Line

Used drive : SONY DVD RW DRU-800A Adapter: 1 ID: 0

Read mode : Secure
Utilize accurate stream : Yes
Defeat audio cache : Yes
Make use of C2 pointers : No

Read offset correction : 12
Overread into Lead-In and Lead-Out : No
Fill up missing offset samples with silence : Yes
Delete leading and trailing silent blocks : No
Null samples used in CRC calculations : No
Used interface : Installed external ASPI interface
Gap handling : Appended to previous track

Used output format : Internal WAV Routines
Sample format : 44.100 Hz; 16 Bit; Stereo


TOC of the extracted CD

Track | Start | Length | Start sector | End sector
---------------------------------------------------------
1 | 0:00.00 | 4:11.34 | 0 | 18858
2 | 4:11.34 | 5:30.62 | 18859 | 43670
3 | 9:42.21 | 5:02.35 | 43671 | 66355
4 | 14:44.56 | 4:45.19 | 66356 | 87749
5 | 19:30.00 | 3:51.33 | 87750 | 105107
6 | 23:21.33 | 7:02.19 | 105108 | 136776
7 | 30:23.52 | 6:04.28 | 136777 | 164104
8 | 36:28.05 | 4:31.44 | 164105 | 184473
9 | 40:59.49 | 5:39.26 | 184474 | 209924
10 | 46:39.00 | 3:26.13 | 209925 | 225387


Track 1

Filename C:\Documents and Settings\hfh71\Desktop\01 Vain - Running on Empty.wav

Pre-gap length 0:00:02.00

Peak level 91.6 %
Track quality 100.0 %
Test CRC D4BB0C08
Copy CRC D4BB0C08
Accurately ripped (confidence 1) [5D086E7A]
Copy OK

Track 2

Filename C:\Documents and Settings\hfh71\Desktop\02 Vain - So Free Now.wav

Pre-gap length 0:00:01.21

Peak level 95.2 %
Track quality 100.0 %
Test CRC 2C5FFA03
Copy CRC 2C5FFA03
Accurately ripped (confidence 1) [2FB32BF7]
Copy OK

Track 3

Filename C:\Documents and Settings\hfh71\Desktop\03 Vain - Drag Me.wav

Pre-gap length 0:00:02.00

Peak level 99.6 %
Track quality 100.0 %
Test CRC 2134D8C7
Copy CRC 2134D8C7
Accurately ripped (confidence 1) [16F228C6]
Copy OK

Track 4

Filename C:\Documents and Settings\hfh71\Desktop\04 Vain - Last Sin.wav

Peak level 83.2 %
Track quality 99.9 %
Test CRC 8EB7F5A6
Copy CRC 8EB7F5A6
Accurately ripped (confidence 1) [53952FB8]
Copy OK

Track 5

Filename C:\Documents and Settings\hfh71\Desktop\05 Vain - On The Line.wav

Pre-gap length 0:00:01.59

Peak level 100.0 %
Track quality 99.9 %
Test CRC E4763BE3
Copy CRC E4763BE3
Accurately ripped (confidence 1) [CFE8D478]
Copy OK

Track 6

Filename C:\Documents and Settings\hfh71\Desktop\06 Vain - Turn to Sand.wav

Pre-gap length 0:00:02.74

Peak level 98.4 %
Track quality 100.0 %
Test CRC 052E8A0B
Copy CRC 052E8A0B
Accurately ripped (confidence 1) [F363F046]
Copy OK

Track 7

Filename C:\Documents and Settings\hfh71\Desktop\07 Vain - Lie for Love.wav

Pre-gap length 0:00:02.74

Peak level 88.0 %
Track quality 100.0 %
Test CRC 5B8A8722
Copy CRC 5B8A8722
Accurately ripped (confidence 1) [ADE7365D]
Copy OK

Track 8

Filename C:\Documents and Settings\hfh71\Desktop\08 Vain - Cover Me (Just One More Time).wav

Pre-gap length 0:00:03.74

Peak level 100.0 %
Track quality 100.0 %
Test CRC 78458464
Copy CRC 78458464
Accurately ripped (confidence 1) [F9756637]
Copy OK

Track 9

Filename C:\Documents and Settings\hfh71\Desktop\09 Vain - Slave.wav

Pre-gap length 0:00:17.61

Peak level 100.0 %
Track quality 99.9 %
Test CRC 0BB02491
Copy CRC 0BB02491
Accurately ripped (confidence 1) [DA108609]
Copy OK

Track 10

Filename C:\Documents and Settings\hfh71\Desktop\10 Vain - Keep Shining On.wav

Peak level 100.0 %
Track quality 100.0 %
Test CRC 64D039B0
Copy CRC 64D039B0
Accurately ripped (confidence 1) [56094110]
Copy OK


All tracks accurately ripped

No errors occurred

End of status report


Cue
REM GENRE "Hard Rock"
REM DATE 2005
REM DISCID 7A0BBD0A
REM COMMENT "ExactAudioCopy v0.99pb5"
PERFORMER "Vain"
TITLE "On The Line"
FILE "01 Vain - Running on Empty.wav" WAVE
TRACK 01 AUDIO
TITLE "Running on Empty"
PERFORMER "Vain"
INDEX 01 00:00:00
TRACK 02 AUDIO
TITLE "So Free Now"
PERFORMER "Vain"
INDEX 00 04:10:13
FILE "02 Vain - So Free Now.wav" WAVE
INDEX 01 00:00:00
TRACK 03 AUDIO
TITLE "Drag Me"
PERFORMER "Vain"
INDEX 00 05:28:62
FILE "03 Vain - Drag Me.wav" WAVE
INDEX 01 00:00:00
FILE "04 Vain - Last Sin.wav" WAVE
TRACK 04 AUDIO
TITLE "Last Sin"
PERFORMER "Vain"
INDEX 01 00:00:00
TRACK 05 AUDIO
TITLE "On The Line"
PERFORMER "Vain"
INDEX 00 04:43:35
FILE "05 Vain - On The Line.wav" WAVE
INDEX 01 00:00:00
TRACK 06 AUDIO
TITLE "Turn to Sand"
PERFORMER "Vain"
INDEX 00 03:48:34
FILE "06 Vain - Turn to Sand.wav" WAVE
INDEX 01 00:00:00
TRACK 07 AUDIO
TITLE "Lie for Love"
PERFORMER "Vain"
INDEX 00 06:59:20
FILE "07 Vain - Lie for Love.wav" WAVE
INDEX 01 00:00:00
TRACK 08 AUDIO
TITLE "Cover Me (Just One More Time)"
PERFORMER "Vain"
INDEX 00 06:00:29
FILE "08 Vain - Cover Me (Just One More Time).wav" WAVE
INDEX 01 00:00:00
TRACK 09 AUDIO
TITLE "Slave"
PERFORMER "Vain"
INDEX 00 04:13:58
FILE "09 Vain - Slave.wav" WAVE
INDEX 01 00:00:00
FILE "10 Vain - Keep Shining On.wav" WAVE
TRACK 10 AUDIO
TITLE "Keep Shining On"
PERFORMER "Vain"
INDEX 01 00:00:00


FLAC
narod-Flac

mp3-320
megaupload-320

Последний на данный момент студийный диск группы.
Рип от hfh71


Top
 Profile  
 
 
PostPosted: 26 Oct 2009 
А может смените мне статус?..
User avatar
Joined: 22 Nov 2008
Posts: 955
Lоcаtion: Schelcovo,Russia
Age: 46
Name: Сергей
Спасибо! Замечательная команда.


Top
 Profile  
 
 
PostPosted: 01 Nov 2009 
Хиппей (support team)
User avatar
Joined: 30 Jul 2007
Posts: 94467
Lоcаtion: Киев (Kyiv, UA)
Age: 44
Name: Andrey
:thanx:

_________________


Top
 Profile E-mail  
 
 
PostPosted: 30 May 2010 
*** Умер ***
User avatar
Joined: 25 Apr 2009
Posts: 2188
Lоcаtion: Санкт-Петербург
Age: 31
Name: Кирилл
А нету демки 85 года? :oops:

http://www.youtube.com/watch?v=cAHubVl_FwI

Одна из песен. :true:


Top
 Profile E-mail  
 
 
PostPosted: 12 Sep 2011 
Доктор энтомологии
User avatar
Joined: 22 Jan 2009
Posts: 8187
Lоcаtion: Даугавпилс
Age: 42
Name: Алексей
oldrocker Спасибо большое за 320 :thanx:


Top
 Profile  
 
 
PostPosted: 12 Sep 2011 
Хиппей (support team)
User avatar
Joined: 30 Jul 2007
Posts: 94467
Lоcаtion: Киев (Kyiv, UA)
Age: 44
Name: Andrey
Упс... а лося то не не сохранили :oops:
Может кто-то перелить? При возможности :vic:

_________________


Top
 Profile E-mail  
 
 
PostPosted: 12 Sep 2011 
Old Time Rock`n`Roll
User avatar
Joined: 23 Jun 2008
Posts: 3314
Warnings: 1
Lоcаtion: г.Ульяновск
Age: 39
Name: Константин
На рутрекере он есть, причем полноценный образ, без деления на треки.
http://rutracker.org/forum/viewtopic.php?t=2536119


Top
 Profile  
 
 
PostPosted: 25 Sep 2011 
Хиппей (support team)
User avatar
Joined: 30 Jul 2007
Posts: 94467
Lоcаtion: Киев (Kyiv, UA)
Age: 44
Name: Andrey
О, точняк :dance:

_________________


Top
 Profile E-mail  
 
Display posts from previous:  Sort by  
Post new topic Reply to topic  [ 8 posts ] 

All times are UTC + 3 hours


Who is online

Users browsing this forum: No registered users and 2 guests


You cannot post new topics in this forum
You cannot reply to topics in this forum
You cannot edit your posts in this forum
You cannot delete your posts in this forum
You cannot post attachments in this forum

Search for:
Яндекс.Метрика
Powered by phpBB © 2000, 2002, 2005, 2007 phpBB Group