\m/ 80's metal \m/

Информационно-аналитический форум "80 см пыли" (In Search We Trust) "У нас никто никуда не спешит"
Железнодорожная биржа - RailAgent
It is currently 23 Aug 2017

All times are UTC + 3 hours

Spoiler
Chat - temporary registration for foreign users (please leave your application here)







Post new topic Reply to topic  [ 1 post ] 
Author Message
 
PostPosted: 23 Oct 2009 
Хиппей (support team)
User avatar
Joined: 30 Jul 2007
Posts: 92405
Lоcаtion: Киев (Kyiv, UA)
Age: 44
Name: Andrey
V2 - 1988 - V2 [ape]

    Image

Genre: Hard & Heavy
Location: Germany
Format: ape+cue+log+covers
Size: 334 Mb


Line-up:
Tommy Heart - vocals
Simon D'Brouier - guitar
Alexander W. Reich - guitar
Robert Hanke - bass
Matti Kaebs -drums

    1. Rock the City - 03:25
    2. Hunter of Love - 04:07
    3. Tonight - 03:28
    4. Dying for Your Love - 04:56
    5. Hot Line - 02:57
    6. Run for Your Life - 04:21
    7. Wall Street - 03:10
    8. Make it Hard - 03:50
    9. Top of the World - 03:25
    10. Spotlight - 03:17
    11. Firefly - 02:58
    12. Ashes to Ashes - 03:02
    13. Wish You Were Here - 03:42

    TPT: 46:38

Приятный мелодичный германский хардынхэви с кучей известных музыкантов и вокалистом, поющим иногда в стиле Клауса Майне :meloman:

За альбом спасибо товарищу rockberto с ММТ :thanx:

Mega
Narod

log
EAC extraction logfile from 25. April 2008, 22:10 for CD
V2 / V2

Used drive : PIONEER DVD-RW DVR-115D Adapter: 5 ID: 1
Read mode : Secure with NO C2, accurate stream, disable cache
Read offset correction : 48
Overread into Lead-In and Lead-Out : No

Used output format : C:\Programmi\Exact Audio Copy\MAC.EXE (Monkey's Audio Lossless Encoder)
High Lossless Compression

Other options :
Fill up missing offset samples with silence : Yes
Delete leading and trailing silent blocks : No
Native Win32 interface for Win NT & 2000


Range status and errors
Selected range
Filename C:\Documents and Settings\oem\Documenti\Musica\V2 - V2\V2 - V2.wav.wav

Peak level 100.0 %
Range quality 100.0 %
CRC 5FF8904C
Copy OK

No errors occured

End of status report


cue
REM GENRE "Hard Rock"
REM DATE 1988
REM DISCID A20B030D
REM COMMENT "ExactAudioCopy v0.95b4"
PERFORMER "V2"
TITLE "V2"
FILE "V2 - V2.wav" WAVE
TRACK 01 AUDIO
TITLE "Rock The City"
PERFORMER "V2"
INDEX 00 00:00:00
INDEX 01 00:00:37
TRACK 02 AUDIO
TITLE "Hunter Of Love"
PERFORMER "V2"
INDEX 01 03:36:22
TRACK 03 AUDIO
TITLE "Tonight"
PERFORMER "V2"
INDEX 01 07:42:72
TRACK 04 AUDIO
TITLE "Dying For Your Love"
PERFORMER "V2"
INDEX 01 11:11:57
TRACK 05 AUDIO
TITLE "Hot Line"
PERFORMER "V2"
INDEX 01 16:09:62
TRACK 06 AUDIO
TITLE "Run For Your Life"
PERFORMER "V2"
INDEX 01 19:07:02
TRACK 07 AUDIO
TITLE "Wall Street"
PERFORMER "V2"
INDEX 01 23:28:57
TRACK 08 AUDIO
TITLE "Make It Hard"
PERFORMER "V2"
INDEX 01 26:39:35
TRACK 09 AUDIO
TITLE "Top Of The World"
PERFORMER "V2"
INDEX 01 30:29:27
TRACK 10 AUDIO
TITLE "Spotlight"
PERFORMER "V2"
INDEX 01 33:55:62
TRACK 11 AUDIO
TITLE "Firefly"
PERFORMER "V2"
INDEX 01 37:13:35
TRACK 12 AUDIO
TITLE "Ashes To Ashes"
PERFORMER "V2"
INDEX 01 40:13:22
TRACK 13 AUDIO
TITLE "Wish You Were Here"
PERFORMER "V2"
INDEX 01 43:16:60

_________________


Top
 Profile E-mail  
 
Display posts from previous:  Sort by  
Post new topic Reply to topic  [ 1 post ] 

All times are UTC + 3 hours


Who is online

Users browsing this forum: No registered users and 4 guests


You cannot post new topics in this forum
You cannot reply to topics in this forum
You cannot edit your posts in this forum
You cannot delete your posts in this forum
You cannot post attachments in this forum

Search for:
Яндекс.Метрика
Powered by phpBB © 2000, 2002, 2005, 2007 phpBB Group