\m/ 80's metal \m/

Информационно-аналитический форум "80 см пыли" (In Search We Trust) "У нас никто никуда не спешит"
Железнодорожная биржа - RailAgent
It is currently 24 Sep 2017

All times are UTC + 3 hours

Spoiler
Chat - temporary registration for foreign users (please leave your application here)







Post new topic Reply to topic  [ 1 post ] 
Author Message
 
PostPosted: 02 Aug 2009 
труъ антисионист
User avatar
Joined: 01 Aug 2007
Posts: 4529
Lоcаtion: Откуда и большинство из нас
Age: 36
Name: Дядя Вова
Image
Группа: V8
Альбом: Un Paso Más en la Batalla
Год: 1984
Лейбл: Umbral
Стиль: Heavy Metal
Страна: ARG
Формат: Image APE / LOG / CUE
Размер: 198 Mb

*******************************************************************************************

Line Up:

Alberto "Beto" Zamarbide - Vocals
Osvaldo Civile - Guitar
Ricardo Iorio - Bass
Gustavo Rowek - Drums



Tracks:
01. Deseando Destruir Y Matar (5:16)
02. Siervos Del Mal (3:26)
03. La Mano Maldita (2:23)
04. Cautivos Del Sistema (3:53)
05. Lanzado Al Mundo Hoy (3:53)
06. Ideando La Fuga (2:57)
07. Camino Al Sepulcro (4:22)
08. Momento De Luchar (2:54)


LOG
Exact Audio Copy V0.99 prebeta 4 from 23. January 2008

EAC extraction logfile from 21. March 2009, 18:19

V8 / Un Paso Mas En La Batalla

Used drive : Optiarc DVD RW AD-7190A Adapter: 1 ID: 0

Read mode : Secure
Utilize accurate stream : Yes
Defeat audio cache : Yes
Make use of C2 pointers : No

Read offset correction : 102
Overread into Lead-In and Lead-Out : No
Fill up missing offset samples with silence : Yes
Delete leading and trailing silent blocks : No
Null samples used in CRC calculations : No
Used interface : Installed external ASPI interface

Used output format : Monkey's Audio Lossless Encoder
Selected bitrate : High Lossless Compression
Quality : High
Add ID3 tag : Yes
Command line compressor : C:\Archivos de programa\Exact Audio Copy\MAC.EXE


TOC of the extracted CD

Track | Start | Length | Start sector | End sector
---------------------------------------------------------
1 | 0:00.00 | 5:16.31 | 0 | 23730
2 | 5:16.31 | 3:26.08 | 23731 | 39188
3 | 8:42.39 | 2:23.23 | 39189 | 49936
4 | 11:05.62 | 3:53.15 | 49937 | 67426
5 | 14:59.02 | 3:53.19 | 67427 | 84920
6 | 18:52.21 | 2:56.39 | 84921 | 98159
7 | 21:48.60 | 4:21.55 | 98160 | 117789
8 | 26:10.40 | 2:53.42 | 117790 | 130806


Range status and errors

Selected range

Filename C:\Documents and Settings\Administrador\Escritorio\Metal4alas.blogspot.com\CD 2 - Un Paso Mбs En La Batalla (1984\V8 - Un Paso Mas En La Batalla.wav

Peak level 97.7 %
Range quality 100.0 %
Copy CRC 27C82572
Copy OK

No errors occurred

End of status report

===================================DOWNLOAD========================================
http://www.megaupload.com/?d=UWM33CD3
http://narod.ru/disk/11533003000/V8%20- ... a.zip.html

_________________
Image
Image


Top
 Profile  
 
Display posts from previous:  Sort by  
Post new topic Reply to topic  [ 1 post ] 

All times are UTC + 3 hours


Who is online

Users browsing this forum: No registered users and 1 guest


You cannot post new topics in this forum
You cannot reply to topics in this forum
You cannot edit your posts in this forum
You cannot delete your posts in this forum
You cannot post attachments in this forum

Search for:
Яндекс.Метрика
Powered by phpBB © 2000, 2002, 2005, 2007 phpBB Group