\m/ 80's metal \m/

Информационно-аналитический форум "80 см пыли" (In Search We Trust) "У нас никто никуда не спешит"
Железнодорожная биржа - RailAgent
It is currently 21 Oct 2017

All times are UTC + 3 hours

Spoiler
Chat - temporary registration for foreign users (please leave your application here)







Post new topic Reply to topic  [ 2 posts ] 
Author Message
 
PostPosted: 02 Aug 2009 
труъ антисионист
User avatar
Joined: 01 Aug 2007
Posts: 4529
Lоcаtion: Откуда и большинство из нас
Age: 36
Name: Дядя Вова
Image
Группа: V8
Альбом: Luchando por el Metal
Год: 1983
Лейбл: Umbral
Стиль: Heavy Metal
Страна: ARG
Формат: Image APE / LOG / CUE
Размер: 165 Mb

*******************************************************************************************

Line Up:

Alberto "Beto" Zamarbide - Vocals
Osvaldo Civile - Guitar
Ricardo Iorio - Bass
Gustavo Rowek - Drums



Tracks:

01. Destrucciуn (2:08)
02. Parcas Sangrientas (2:58)
03. Si Puedes Vencer al Temor (6:11)
04. Бngeles de las Tinieblas (2:34)
05. Tiempos Metбlicos (2:31)
06. Muy Cansado Estoy (3:23)
07. Brigadas Metбlicas (3:05)
08. Torturador (2:27)
09. Hiena de Metal (1:40)


LOG
Exact Audio Copy V0.99 prebeta 4 from 23. January 2008

EAC extraction logfile from 21. March 2009, 18:32

V8 / Luchando por el Metal

Used drive : Optiarc DVD RW AD-7190A Adapter: 1 ID: 0

Read mode : Secure
Utilize accurate stream : Yes
Defeat audio cache : Yes
Make use of C2 pointers : No

Read offset correction : 102
Overread into Lead-In and Lead-Out : No
Fill up missing offset samples with silence : Yes
Delete leading and trailing silent blocks : No
Null samples used in CRC calculations : No
Used interface : Installed external ASPI
interface

Used output format : Monkey's Audio Lossless Encoder
Selected bitrate : High Lossless Compression
Quality : High
Add ID3 tag : Yes
Command line compressor : C:Archivos de programaExact Audio
CopyMAC.EXE


TOC of the extracted CD

Track | Start | Length | Start sector | End sector
---------------------------------------------------------
1 | 0:00.00 | 2:08.32 | 0 | 9631
2 | 2:08.32 | 2:58.00 | 9632 | 22981
3 | 5:06.32 | 6:11.09 | 22982 | 50815
4 | 11:17.41 | 2:33.49 | 50816 | 62339
5 | 13:51.15 | 2:30.70 | 62340 | 73659
6 | 16:22.10 | 3:23.07 | 73660 | 88891
7 | 19:45.17 | 3:04.41 | 88892 | 102732
8 | 22:49.58 | 2:27.01 | 102733 | 113758
9 | 25:16.59 | 1:40.03 | 113759 | 121261


Range status and errors

Selected range

Filename C:Documents and
SettingsAdministradorEscritorioMetal4alas.blogspot.comV8 - Luchando por el
Metal.wav

Peak level 97.7 %
Range quality 99.9 %
Copy CRC A0E540F3
Copy OK

No errors occurred

End of status report

===================================DOWNLOAD========================================

http://www.megaupload.com/?d=JOJ57HG5
http://narod.ru/disk/11534228000/V8%20- ... l.zip.html

_________________
Image
Image


Top
 Profile  
 
 
PostPosted: 12 Nov 2009 
Thrasher
User avatar
Joined: 07 Oct 2007
Posts: 2755
Lоcаtion: Russia, Moscow
Age: 33
Name: Drunk & Evil
:thanx: :true:

_________________
ВОДКА, БАБЫ И БЛЮЗ / 40° till death... :bodun:
One time we saw some hookers, but when we got closer, we realised it was Mötley Crüe. ©


Top
 Profile  
 
Display posts from previous:  Sort by  
Post new topic Reply to topic  [ 2 posts ] 

All times are UTC + 3 hours


Who is online

Users browsing this forum: No registered users and 1 guest


You cannot post new topics in this forum
You cannot reply to topics in this forum
You cannot edit your posts in this forum
You cannot delete your posts in this forum
You cannot post attachments in this forum

Search for:
Яндекс.Метрика
Powered by phpBB © 2000, 2002, 2005, 2007 phpBB Group