\m/ 80's metal \m/

Информационно-аналитический форум "80 см пыли" (In Search We Trust) "У нас никто никуда не спешит"
Железнодорожная биржа - RailAgent
It is currently 24 Sep 2017

All times are UTC + 3 hours

Spoiler
Chat - temporary registration for foreign users (please leave your application here)







Post new topic Reply to topic  [ 2 posts ] 
Author Message
 
PostPosted: 02 Aug 2009 
труъ антисионист
User avatar
Joined: 01 Aug 2007
Posts: 4529
Lоcаtion: Откуда и большинство из нас
Age: 36
Name: Дядя Вова
Image
Группа: V8
Альбом: El Fin De Los Inicuos
Год: 1986
Лейбл:
Стиль: Heavy Metal
Страна: ARG
Формат: Image APE / LOG / CUE
Размер: 237 Mb

*******************************************************************************************
Рип не мой, найден в сети.

Line Up:

Alberto "Beto" Zamarbide - Vocals
Miguel Roldán - Guitar
Ricardo Iorio - Bass
Adrián Cenci - Drums


Tracks:
1. La Gran Ramera 03:10
2. Ciega Ambición 03:34
3. No Enloqueceré 03:39
4. El Vivo Sustento del Inquisidor 04:00
5. Antes que los Viejos Reyes 03:42
6. Salmo nº 58 04:56
7. El Fin de los Inicuos 02:27
8. Trágico Siglo 03:22
9. Reina Ciega 03:55

Total playing time 32:45
LOG
Exact Audio Copy V0.99 prebeta 4 from 23. January 2008

EAC extraction logfile from 21. March 2009, 17:42

V8 / El Fin de los Inicuos

Used drive : Optiarc DVD RW AD-7190A Adapter: 1 ID: 0

Read mode : Secure
Utilize accurate stream : Yes
Defeat audio cache : Yes
Make use of C2 pointers : No

Read offset correction : 102
Overread into Lead-In and Lead-Out : No
Fill up missing offset samples with silence : Yes
Delete leading and trailing silent blocks : No
Null samples used in CRC calculations : No
Used interface : Installed external ASPI
interface

Used output format : Monkey's Audio Lossless Encoder
Selected bitrate : High Lossless Compression
Quality : High
Add ID3 tag : Yes
Command line compressor : C:Archivos de programaExact Audio
CopyMAC.EXE


TOC of the extracted CD

Track | Start | Length | Start sector | End sector
---------------------------------------------------------
1 | 0:00.00 | 3:13.49 | 0 | 14523
2 | 3:13.49 | 3:36.74 | 14524 | 30797
3 | 6:50.48 | 3:40.35 | 30798 | 47332
4 | 10:31.08 | 4:02.68 | 47333 | 65550
5 | 14:34.01 | 3:43.65 | 65551 | 82340
6 | 18:17.66 | 4:58.01 | 82341 | 104691
7 | 23:15.67 | 2:29.19 | 104692 | 115885
8 | 25:45.11 | 3:26.59 | 115886 | 131394
9 | 29:11.70 | 3:57.08 | 131395 | 149177


Range status and errors

Selected range

Filename C:Documents and
SettingsAdministradorEscritorioMetal4alas.blogspot.comV8 - El Fin de los
Inicuos.wav

Peak level 97.7 %
Range quality 99.9 %
Copy CRC 35B0426A
Copy OK

No errors occurred

End of status report

===================================DOWNLOAD========================================
http://narod.ru/disk/11533898000/V8%20- ... s.zip.html
http://www.megaupload.com/?d=PSJZFTEZ

_________________
Image
Image


Top
 Profile  
 
 
PostPosted: 02 Aug 2009 
Хиппей (support team)
User avatar
Joined: 30 Jul 2007
Posts: 93243
Lоcаtion: Киев (Kyiv, UA)
Age: 44
Name: Andrey
Glot wrote:
LOG

Glot wrote:
Рип не мой, найден в сети

Вовка, не ленись лог засвечивать, плиз.

_________________


Top
 Profile E-mail  
 
Display posts from previous:  Sort by  
Post new topic Reply to topic  [ 2 posts ] 

All times are UTC + 3 hours


Who is online

Users browsing this forum: No registered users and 1 guest


You cannot post new topics in this forum
You cannot reply to topics in this forum
You cannot edit your posts in this forum
You cannot delete your posts in this forum
You cannot post attachments in this forum

Search for:
Яндекс.Метрика
cron
Powered by phpBB © 2000, 2002, 2005, 2007 phpBB Group