\m/ 80's metal \m/

Информационно-аналитический форум "80 см пыли" (In Search We Trust) "У нас никто никуда не спешит"
Железнодорожная биржа - RailAgent
It is currently 11 Dec 2017

All times are UTC + 3 hours

Spoiler
Chat - temporary registration for foreign users (please leave your application here)







Post new topic Reply to topic  [ 12 posts ] 
Author Message
 
PostPosted: 30 Jul 2009 
хард н хэвщик (support team)
User avatar
Joined: 02 Jun 2008
Posts: 16879
Lоcаtion: Н.Новгород
Age: 30
Name: Артем
Image

Vain - Move On It.rar
APE+CUE+COVERS
источник: получен по обмену


1. Breakdown
2. Whisper
3. Long Time Ago
4. Ivy's Dreams
5. Hit and Run
6. Family
7. Planets Turning
8. Get Up
9. Crumpled Glory
10. Ressurection
11. Ticket Out'a Here

Спектры хорошие

cue
REM DISCID 910B390B
REM COMMENT "ExactAudioCopy v0.95b3"
PERFORMER "Vain"
TITLE "Move On It"
FILE "Vain - Move On It.wav" WAVE
TRACK 01 AUDIO
TITLE "Breakdown"
PERFORMER "Vain"
INDEX 01 00:00:00
TRACK 02 AUDIO
TITLE "Whisper"
PERFORMER "Vain"
INDEX 01 05:41:00
TRACK 03 AUDIO
TITLE "Long Time Ago"
PERFORMER "Vain"
INDEX 01 10:38:70
TRACK 04 AUDIO
TITLE "Ivy's Dreams"
PERFORMER "Vain"
INDEX 01 15:04:57
TRACK 05 AUDIO
TITLE "Hit & Run"
PERFORMER "Vain"
INDEX 01 18:49:27
TRACK 06 AUDIO
TITLE "Family"
PERFORMER "Vain"
INDEX 01 22:52:57
TRACK 07 AUDIO
TITLE "Planets Turning"
PERFORMER "Vain"
INDEX 01 26:25:40
TRACK 08 AUDIO
TITLE "Get Up"
PERFORMER "Vain"
INDEX 01 32:17:42
TRACK 09 AUDIO
TITLE "Crumpled Glory"
PERFORMER "Vain"
INDEX 01 36:18:10
TRACK 10 AUDIO
TITLE "Resurrection"
PERFORMER "Vain"
INDEX 01 39:47:27
TRACK 11 AUDIO
TITLE "Ticket Out'a Here"
PERFORMER "Vain"
INDEX 01 43:30:70


Top
 Profile  
 
 
PostPosted: 30 Jul 2009 
Хиппей (support team)
User avatar
Joined: 30 Jul 2007
Posts: 96901
Lоcаtion: Киев (Kyiv, UA)
Age: 44
Name: Andrey
McKagan wrote:
Спектры хорошие

Спасибо =)))
А что по стилю? :vic:

_________________


Top
 Profile E-mail  
 
 
PostPosted: 30 Jul 2009 
Прокъмитолист
User avatar
Joined: 12 Aug 2007
Posts: 6252
Lоcаtion: Санктъ-Петербуркъ
Age: 50
Name: Олекъ
Scatterbrain wrote:
А что по стилю?

стиль (я так подозреваю) тоже хороший :crazy:

_________________
прокъметол - это музыко, от которово есть прок (ы)


Top
 Profile  
 
 
PostPosted: 30 Jul 2009 
труъ антисионист
User avatar
Joined: 01 Aug 2007
Posts: 4529
Lоcаtion: Откуда и большинство из нас
Age: 37
Name: Дядя Вова
Спасибо, в хозяйстве лось всегда пригодится :crazy:

_________________
Image
Image


Top
 Profile  
 
 
PostPosted: 30 Jul 2009 
хард н хэвщик (support team)
User avatar
Joined: 02 Jun 2008
Posts: 16879
Lоcаtion: Н.Новгород
Age: 30
Name: Артем
Scatterbrain wrote:
А что по стилю? :vic:

да хардешник там, что же еще :pardon:

phpBB [youtube]


Top
 Profile  
 
 
PostPosted: 30 Jul 2009 
Хиппей (support team)
User avatar
Joined: 30 Jul 2007
Posts: 96901
Lоcаtion: Киев (Kyiv, UA)
Age: 44
Name: Andrey
McKagan wrote:
да хардешник там

А хороший?

_________________


Top
 Profile E-mail  
 
 
PostPosted: 31 Jul 2009 
хард н хэвщик (support team)
User avatar
Joined: 02 Jun 2008
Posts: 16879
Lоcаtion: Н.Новгород
Age: 30
Name: Артем
для меня - хороший


Top
 Profile  
 
 
PostPosted: 31 Jul 2009 
Хиппей (support team)
User avatar
Joined: 30 Jul 2007
Posts: 96901
Lоcаtion: Киев (Kyiv, UA)
Age: 44
Name: Andrey
Спасибо, скачал уже, скоро прослушаю :dance:

_________________


Top
 Profile E-mail  
 
 
PostPosted: 06 Aug 2009 
Хиппей (support team)
User avatar
Joined: 30 Jul 2007
Posts: 96901
Lоcаtion: Киев (Kyiv, UA)
Age: 44
Name: Andrey
Действительно хороший хардешник :meloman: Без мармелада. На блюзовой основе. Вокал в меру манерный. Звук бодрый.

_________________


Top
 Profile E-mail  
 
 
PostPosted: 06 Aug 2009 
Хиппей (support team)
User avatar
Joined: 30 Jul 2007
Posts: 96901
Lоcаtion: Киев (Kyiv, UA)
Age: 44
Name: Andrey
А, ну и дополнение - группа из самой да из Америки. Из Сан-Франциски.

http://www.musicmight.com/artist/united ... cisco/vain

_________________


Top
 Profile E-mail  
 
 
PostPosted: 06 Aug 2009 
Alive Again
User avatar
Joined: 17 Dec 2008
Posts: 4444
Lоcаtion: Курск Воронеж Оскол
Age: 43
Name: Дмитрий
Спасибо!


Top
 Profile E-mail  
 
 
PostPosted: 14 Aug 2009 
5cm
User avatar
Joined: 05 May 2009
Posts: 52
Lоcаtion: Kherson
Age: 46
Name: Oleg
Cпасибо! Понравилось! :true:


Top
 Profile E-mail  
 
Display posts from previous:  Sort by  
Post new topic Reply to topic  [ 12 posts ] 

All times are UTC + 3 hours


Who is online

Users browsing this forum: No registered users and 3 guests


You cannot post new topics in this forum
You cannot reply to topics in this forum
You cannot edit your posts in this forum
You cannot delete your posts in this forum
You cannot post attachments in this forum

Search for:
Яндекс.Метрика
cron
Powered by phpBB © 2000, 2002, 2005, 2007 phpBB Group