\m/ 80's metal \m/

Информационно-аналитический форум "80 см пыли" (In Search We Trust) "У нас никто никуда не спешит"
Железнодорожная биржа - RailAgent
It is currently 23 Sep 2017

All times are UTC + 3 hours

Spoiler
Chat - temporary registration for foreign users (please leave your application here)







Post new topic Reply to topic  [ 4 posts ] 
Author Message
 
PostPosted: 07 Mar 2009 
Генеральный thrasher
User avatar
Joined: 03 Oct 2008
Posts: 3143
Lоcаtion: Ханты-Мансийский АО
Age: 42
Name: Сергей
Image

Year: 1997
Country: England
Style: NWOBHM/Black/Speed Metal
Format: Flac+Cue+Log
Size: 378Mb+225Mb

CD1 - Tracklist:
1. The Evil One 03:20
2. Raised in Hell 02:51
3. All Devils Eve 02:57
4. Bleeding 02:47
5. Destroyed & Damned 06:49
6. Domus Mundi 03:55
7. Flight of the Hydra 03:25
8. God's Forsaken 04:28
9. Mortals 03:19
10. Infectious 03:39
11. Kings of Evil 04:19
12. You're All Gonna Die 03:04
13. Judgement Day 04:36
14. Swarm 05:07

CD2 - Tracklist:
1. Intro 01:59
2. Bloodlust 02:59
3. Die Hard 03:06
4. Acid Queen 02:50
5. Bursting Out 02:50
6. Warhead 04:14
7. Lady Lust 02:52
8. Manitou 03:45
9. Rip Ride 03:07
10. Venom 04:13

CD1 Cue
REM GENRE "Black Metal"
REM DATE 1997
REM DISCID A80CCC0E
REM COMMENT "ExactAudioCopy v0.99pb5"
PERFORMER "Venom"
TITLE "Cast In Stone [CD1]"
FILE "Venom - Cast In Stone [CD1].flac" WAVE
TRACK 01 AUDIO
TITLE "The Evil One"
PERFORMER "Venom"
FLAGS DCP
INDEX 01 00:00:00
TRACK 02 AUDIO
TITLE "Raised In Hell"
PERFORMER "Venom"
FLAGS DCP
INDEX 00 03:18:50
INDEX 01 03:20:50
TRACK 03 AUDIO
TITLE "All Devils Eve"
PERFORMER "Venom"
FLAGS DCP
INDEX 00 06:09:54
INDEX 01 06:11:54
TRACK 04 AUDIO
TITLE "Bleeding"
PERFORMER "Venom"
FLAGS DCP
INDEX 00 09:06:42
INDEX 01 09:08:42
TRACK 05 AUDIO
TITLE "Destroyed & Damned"
PERFORMER "Venom"
FLAGS DCP
INDEX 00 11:53:34
INDEX 01 11:55:34
TRACK 06 AUDIO
TITLE "Domus Mundi"
PERFORMER "Venom"
FLAGS DCP
INDEX 00 18:42:11
INDEX 01 18:44:11
TRACK 07 AUDIO
TITLE "Flight Of The Hydra"
PERFORMER "Venom"
FLAGS DCP
INDEX 00 22:37:38
INDEX 01 22:39:38
TRACK 08 AUDIO
TITLE "God's Forsaken"
PERFORMER "Venom"
FLAGS DCP
INDEX 00 26:02:49
INDEX 01 26:04:49
TRACK 09 AUDIO
TITLE "Mortals"
PERFORMER "Venom"
FLAGS DCP
INDEX 00 30:30:01
INDEX 01 30:32:01
TRACK 10 AUDIO
TITLE "Infectious"
PERFORMER "Venom"
FLAGS DCP
INDEX 00 33:49:04
INDEX 01 33:51:04
TRACK 11 AUDIO
TITLE "Kings Of Evil"
PERFORMER "Venom"
FLAGS DCP
INDEX 00 37:28:24
INDEX 01 37:30:24
TRACK 12 AUDIO
TITLE "You're All Gonna Die"
PERFORMER "Venom"
FLAGS DCP
INDEX 00 41:47:10
INDEX 01 41:49:10
TRACK 13 AUDIO
TITLE "Judgement Day"
PERFORMER "Venom"
FLAGS DCP
INDEX 00 44:51:38
INDEX 01 44:53:38
TRACK 14 AUDIO
TITLE "Swarm"
PERFORMER "Venom"
FLAGS DCP
INDEX 00 49:27:15
INDEX 01 49:29:15


CD2 Cue
REM GENRE "Black Metal"
REM DATE 1997
REM DISCID 73077B0A
REM COMMENT "ExactAudioCopy v0.99pb5"
PERFORMER "Venom"
TITLE "Cast in Stone [Bonus CD]: Venom Classics Re-recorded"
FILE "Venom - Cast in Stone [Bonus CD] Venom Classics Re-recorded.flac" WAVE
TRACK 01 AUDIO
TITLE "Intro"
PERFORMER "Venom"
INDEX 01 00:00:00
TRACK 02 AUDIO
TITLE "Bloodlust"
PERFORMER "Venom"
INDEX 01 01:59:25
TRACK 03 AUDIO
TITLE "Die Hard"
PERFORMER "Venom"
INDEX 01 04:58:50
TRACK 04 AUDIO
TITLE "Acid Queen"
PERFORMER "Venom"
INDEX 00 08:02:60
INDEX 01 08:04:12
TRACK 05 AUDIO
TITLE "Burstin' Out"
PERFORMER "Venom"
INDEX 00 10:52:27
INDEX 01 10:54:50
TRACK 06 AUDIO
TITLE "Warhead"
PERFORMER "Venom"
INDEX 00 13:42:47
INDEX 01 13:44:12
TRACK 07 AUDIO
TITLE "Ladylust"
PERFORMER "Venom"
INDEX 00 17:56:45
INDEX 01 17:58:52
TRACK 08 AUDIO
TITLE "Manitou"
PERFORMER "Venom"
INDEX 00 20:48:40
INDEX 01 20:50:12
TRACK 09 AUDIO
TITLE "Rip Ride"
PERFORMER "Venom"
INDEX 00 24:33:25
INDEX 01 24:35:12
TRACK 10 AUDIO
TITLE "Venom"
PERFORMER "Venom"
INDEX 00 27:42:47
INDEX 01 27:42:50


Log 1
Exact Audio Copy V0.99 prebeta 5 from 4. May 2009

Отчёт EAC об извлечении, выполненном 15. декабря 2010, 10:50

Venom / Cast In Stone [CD1]

Дисковод: TSSTcorpCDDVDW SH-S202N Adapter: 0 ID: 1

Режим чтения : Достоверность
Использование точного потока : Да
Отключение кэша аудио : Да
Использование указателей C2 : Нет

Коррекция смещения при чтении : 6
Способность читать области Lead-in и Lead-out : Нет
Заполнение пропущенных сэмплов тишиной : Да
Удаление блоков с тишиной в начале и конце : Нет
При вычислениях CRC использовались нулевые сэмплы : Да
Интерфейс : Встроенный Win32-интерфейс для Win NT/2000

Выходной формат : Пользовательский кодировщик
Выбранный битрейт : 768 kBit/s
Качество : Высокий
Добавление ID3-тэга : Нет
Утилита сжатия : C:\Program Files\Exact Audio Copy\FLAC\FLAC.EXE
Дополнительные параметры : -6 -V -T "ARTIST=%a" -T "TITLE=%t" -T "ALBUM=%g" -T "DATE=%y" -T "TRACKNUMBER=%n" -T "GENRE=%m" -T "COMMENT=%e" %s -o %d


TOC извлечённого CD

Трек | Старт | Длительность | Начальный сектор | Конечный сектор
---------------------------------------------------------------------
1 | 0:00.00 | 3:20.50 | 0 | 15049
2 | 3:20.50 | 2:51.04 | 15050 | 27878
3 | 6:11.54 | 2:56.63 | 27879 | 41141
4 | 9:08.42 | 2:46.67 | 41142 | 53658
5 | 11:55.34 | 6:48.52 | 53659 | 84310
6 | 18:44.11 | 3:55.27 | 84311 | 101962
7 | 22:39.38 | 3:25.11 | 101963 | 117348
8 | 26:04.49 | 4:27.27 | 117349 | 137400
9 | 30:32.01 | 3:19.03 | 137401 | 152328
10 | 33:51.04 | 3:39.20 | 152329 | 168773
11 | 37:30.24 | 4:18.61 | 168774 | 188184
12 | 41:49.10 | 3:04.28 | 188185 | 202012
13 | 44:53.38 | 4:35.52 | 202013 | 222689
14 | 49:29.15 | 5:07.06 | 222690 | 245720


Характеристики диапазона извлечения и сообщения об ошибках

Выбранный диапазон

Имя файла E:\Лоси\V\Venom - Cast In Stone [CD1].wav

Пиковый уровень 98.9 %
Качество диапазона 100.0 %
CRC копии 00DF9C2C
Копирование... OK

Ошибок не произошло


AccurateRip: сводка

Трек 1 точное извлечение (доверие 13) [3C9295A5]
Трек 2 точное извлечение (доверие 13) [0FD30CC3]
Трек 3 точное извлечение (доверие 13) [9CCBEB9A]
Трек 4 точное извлечение (доверие 13) [1E020694]
Трек 5 точное извлечение (доверие 13) [76590E39]
Трек 6 точное извлечение (доверие 13) [75104BFE]
Трек 7 точное извлечение (доверие 13) [2D5424EC]
Трек 8 точное извлечение (доверие 13) [F933B499]
Трек 9 точное извлечение (доверие 13) [843F6018]
Трек 10 точное извлечение (доверие 13) [8AACF044]
Трек 11 точное извлечение (доверие 13) [91D23546]
Трек 12 точное извлечение (доверие 13) [AC0283A4]
Трек 13 точное извлечение (доверие 13) [072853A8]
Трек 14 точное извлечение (доверие 13) [2E0F11E3]

Все треки извлечены точно

Конец отчёта


Log 2
Exact Audio Copy V0.99 prebeta 5 from 4. May 2009

Отчёт EAC об извлечении, выполненном 15. декабря 2010, 11:08

Venom / Cast in Stone [Bonus CD]: Venom Classics Re-recorded

Дисковод: TSSTcorpCDDVDW SH-S202N Adapter: 0 ID: 1

Режим чтения : Достоверность
Использование точного потока : Да
Отключение кэша аудио : Да
Использование указателей C2 : Нет

Коррекция смещения при чтении : 6
Способность читать области Lead-in и Lead-out : Нет
Заполнение пропущенных сэмплов тишиной : Да
Удаление блоков с тишиной в начале и конце : Нет
При вычислениях CRC использовались нулевые сэмплы : Да
Интерфейс : Встроенный Win32-интерфейс для Win NT/2000

Выходной формат : Пользовательский кодировщик
Выбранный битрейт : 768 kBit/s
Качество : Высокий
Добавление ID3-тэга : Нет
Утилита сжатия : C:\Program Files\Exact Audio Copy\FLAC\FLAC.EXE
Дополнительные параметры : -6 -V -T "ARTIST=%a" -T "TITLE=%t" -T "ALBUM=%g" -T "DATE=%y" -T "TRACKNUMBER=%n" -T "GENRE=%m" -T "COMMENT=%e" %s -o %d


TOC извлечённого CD

Трек | Старт | Длительность | Начальный сектор | Конечный сектор
---------------------------------------------------------------------
1 | 0:00.00 | 1:59.25 | 0 | 8949
2 | 1:59.25 | 2:59.25 | 8950 | 22399
3 | 4:58.50 | 3:05.37 | 22400 | 36311
4 | 8:04.12 | 2:50.38 | 36312 | 49099
5 | 10:54.50 | 2:49.37 | 49100 | 61811
6 | 13:44.12 | 4:14.40 | 61812 | 80901
7 | 17:58.52 | 2:51.35 | 80902 | 93761
8 | 20:50.12 | 3:45.00 | 93762 | 110636
9 | 24:35.12 | 3:07.38 | 110637 | 124699
10 | 27:42.50 | 4:12.25 | 124700 | 143624


Характеристики диапазона извлечения и сообщения об ошибках

Выбранный диапазон

Имя файла E:\Лоси\V\Venom - Cast in Stone [Bonus CD] Venom Classics Re-recorded.wav

Пиковый уровень 96.7 %
Качество диапазона 99.9 %
CRC копии E895A0ED
Копирование... OK

Ошибок не произошло


AccurateRip: сводка

Трек 1 точное извлечение (доверие 12) [295A2188]
Трек 2 точное извлечение (доверие 12) [5088DD89]
Трек 3 точное извлечение (доверие 12) [BE90DD05]
Трек 4 точное извлечение (доверие 12) [6805E34D]
Трек 5 точное извлечение (доверие 12) [9DD573B8]
Трек 6 точное извлечение (доверие 12) [963812FC]
Трек 7 точное извлечение (доверие 12) [9B1148C8]
Трек 8 точное извлечение (доверие 12) [752FBF34]
Трек 9 точное извлечение (доверие 12) [8177B5D5]
Трек 10 точное извлечение (доверие 12) [22D2B204]

Все треки извлечены точно

Конец отчёта


Album
Bonus CD


Last edited by thorbeorn on 16 Dec 2010, edited 1 time in total.

Top
 Profile  
 
 
PostPosted: 07 Mar 2009 
Анатолий
User avatar
Joined: 18 Oct 2008
Posts: 2671
Lоcаtion: Армавир
Age: 40
Name: Анатолий
thorbeorn

Спасибо большое! :thanx:


Top
 Profile E-mail  
 
 
PostPosted: 07 Mar 2009 
Генеральный thrasher
User avatar
Joined: 03 Oct 2008
Posts: 3143
Lоcаtion: Ханты-Мансийский АО
Age: 42
Name: Сергей
Пожалуйста!Могу еще "Prime Evil" залить.


Top
 Profile  
 
 
PostPosted: 07 Mar 2009 
Анатолий
User avatar
Joined: 18 Oct 2008
Posts: 2671
Lоcаtion: Армавир
Age: 40
Name: Анатолий
ДАВААААЙЙЙЙ!!! :true:


Top
 Profile E-mail  
 
Display posts from previous:  Sort by  
Post new topic Reply to topic  [ 4 posts ] 

All times are UTC + 3 hours


Who is online

Users browsing this forum: No registered users and 1 guest


You cannot post new topics in this forum
You cannot reply to topics in this forum
You cannot edit your posts in this forum
You cannot delete your posts in this forum
You cannot post attachments in this forum

Search for:
Яндекс.Метрика
Powered by phpBB © 2000, 2002, 2005, 2007 phpBB Group