\m/ 80's metal \m/

Информационно-аналитический форум "80 см пыли" (In Search We Trust) "У нас никто никуда не спешит"
Железнодорожная биржа - RailAgent
It is currently 23 Sep 2017

All times are UTC + 3 hours

Spoiler
Chat - temporary registration for foreign users (please leave your application here)







Post new topic Reply to topic  [ 5 posts ] 
Author Message
 
PostPosted: 22 Jan 2009 
Пионэръ
Joined: 19 Jan 2009
Posts: 34
Age: 27
Name: .
Image

Жанр: Thrash/Speed Metal
Исполнитель: Voivod
Альбом: War And Pain
Год: 1984 (Re-released and Remastered 2004)
Страна: Канада
Текущий Лейбл: The End Records
Переиздано компанией: Metal Blade
Вид: Ape + Cue (2 образа) + Iso (бонус диск) + 2 folders with scans
Размер: 1.42 гб
Плейлист:

CD 1 ("War And Pain" + bonus tracks):
1. Voivod (4:17)
2. Warriors Of Ice (5:07)
3. Suck Your Bone (3:34)
4. Iron Gang (4:16)
5. War And Pain (4:56)
6. Blower (2:44)
7. Live For Violence (5:12)
8. Black City (5:08)
9. Nuclear War (7:03)

"Anachronism" - first Voivod show in June 1983:
10. Condemned To The Gallows (5:07)
11. Blower (3:02)
12. Voivod (3:51)

Metal Massacre 5 sessions:
13. Condemned To The Gallows (5:10)
14. Voivod (4:42)
15. Iron Gang (4:25)

Code:
Exact Audio Copy V0.99 prebeta 4 from 23. January 2008

Отчёт EAC об извлечении, выполненном 22. января 2009, 16:55

Voivod / War And Pain

Дисковод: HL-DT-STDVDRAM GSA-H42N   Adapter: 0  ID: 0

Режим чтения                 : Достоверность
Использование точного потока : Да
Отключение кэша аудио        : Да
Использование указателей C2  : Нет

Коррекция смещения при чтении                     : 667
Способность читать области Lead-in и Lead-out     : Нет
Заполнение пропущенных сэмплов тишиной            : Да
Удаление блоков с тишиной в начале и конце        : Нет
При вычислениях CRC использовались нулевые сэмплы : Да
Интерфейс                                         : Встроенный Win32-интерфейс для Win NT/2000

Выходной формат : Внутренние WAV-операции
Формат сэмплов  : 44.100 Гц; 16 бит; стерео


TOC извлечённого CD

     Трек |   Старт  | Длительность | Начальный сектор | Конечный сектор
    ---------------------------------------------------------------------
       1  |  0:00.00 |    4:17.40   |           0      |      19314     
       2  |  4:17.40 |    5:06.61   |       19315      |      42325     
       3  |  9:24.26 |    3:33.52   |       42326      |      58352     
       4  | 12:58.03 |    4:16.56   |       58353      |      77608     
       5  | 17:14.59 |    4:55.28   |       77609      |      99761     
       6  | 22:10.12 |    2:43.63   |       99762      |     112049     
       7  | 24:54.00 |    5:12.16   |      112050      |     135465     
       8  | 30:06.16 |    5:08.05   |      135466      |     158570     
       9  | 35:14.21 |    7:02.73   |      158571      |     190293     
      10  | 42:17.19 |    5:07.34   |      190294      |     213352     
      11  | 47:24.53 |    3:01.69   |      213353      |     226996     
      12  | 50:26.47 |    3:50.38   |      226997      |     244284     
      13  | 54:17.10 |    5:10.00   |      244285      |     267534     
      14  | 59:27.10 |    4:42.34   |      267535      |     288718     
      15  | 64:09.44 |    4:24.72   |      288719      |     308590     


Характеристики диапазона извлечения и сообщения об ошибках

Выбранный диапазон

     Имя файла C:\Users\Pelmen\Desktop\War And Pain (Boxset 2004)\1984 - War And Pain (CD1)\Voivod - War And Pain.wav

     Пиковый уровень 98.9 %
     Качество диапазона 100.0 %
     CRC копии 32DA7DD3
     Копирование... OK

Ошибок не произошло

Конец отчёта


CD 2 ("Morgöth Invasion - Live Demo December 1984"):
1. Build Your Weapons (4:43)
2. War And Pain (6:25)
3. Condemned To The Gallows (4:53)
4. Warriors Of Ice (5:07)
5. Helldriver (3:57)
6. Horror (3:53)
7. Black City (5:33)
8. Nuclear War (6:32)
9. Blower (3:05)
10. Live For Violence (6:45)
11. Ripping Headaches (3:13)
12. Iron Gang (4:19)
13. Korgull The Exterminator (4:50)
14. Suck Your Bone (4:26)
15. Witching Hour (Venom cover) (2:51)
16. Chemical Warfare (Slayer cover) (6:18)

Code:
Exact Audio Copy V0.99 prebeta 4 from 23. January 2008

Отчёт EAC об извлечении, выполненном 22. января 2009, 17:14

Voivod / Morgoth Invasion [Live Demo December 1984]

Дисковод: HL-DT-STDVDRAM GSA-H42N   Adapter: 0  ID: 0

Режим чтения                 : Достоверность
Использование точного потока : Да
Отключение кэша аудио        : Да
Использование указателей C2  : Нет

Коррекция смещения при чтении                     : 667
Способность читать области Lead-in и Lead-out     : Нет
Заполнение пропущенных сэмплов тишиной            : Да
Удаление блоков с тишиной в начале и конце        : Нет
При вычислениях CRC использовались нулевые сэмплы : Да
Интерфейс                                         : Встроенный Win32-интерфейс для Win NT/2000

Выходной формат : Внутренние WAV-операции
Формат сэмплов  : 44.100 Гц; 16 бит; стерео


TOC извлечённого CD

     Трек |   Старт  | Длительность | Начальный сектор | Конечный сектор
    ---------------------------------------------------------------------
       1  |  0:00.00 |    4:43.08   |           0      |      21232     
       2  |  4:43.08 |    6:25.31   |       21233      |      50138     
       3  | 11:08.39 |    4:52.62   |       50139      |      72100     
       4  | 16:01.26 |    5:07.01   |       72101      |      95126     
       5  | 21:08.27 |    3:57.46   |       95127      |     112947     
       6  | 25:05.73 |    3:52.45   |      112948      |     130392     
       7  | 28:58.43 |    5:32.70   |      130393      |     155362     
       8  | 34:31.38 |    6:32.05   |      155363      |     184767     
       9  | 41:03.43 |    3:04.44   |      184768      |     198611     
      10  | 44:08.12 |    6:45.52   |      198612      |     229038     
      11  | 50:53.64 |    3:12.27   |      229039      |     243465     
      12  | 54:06.16 |    4:19.54   |      243466      |     262944     
      13  | 58:25.70 |    4:50.03   |      262945      |     284697     
      14  | 63:15.73 |    4:25.31   |      284698      |     304603     
      15  | 67:41.29 |    2:51.27   |      304604      |     317455     
      16  | 70:32.56 |    6:17.31   |      317456      |     345761     


Характеристики диапазона извлечения и сообщения об ошибках

Выбранный диапазон

     Имя файла C:\Users\Pelmen\Desktop\War And Pain (Boxset 2004)\1984 - Morgoth Invasion [Live] (CD2)\Voivod - Morgoth Invasion [Live Demo December 1984].wav

     Пиковый уровень 98.9 %
     Качество диапазона 100.0 %
     CRC копии 6F4F3353
     Копирование... OK

Ошибок не произошло

Конец отчёта


CD 3 - bonus CD-ROM including the video clip for "Voivod", screensavers,
wallpapers and a lot more.


<a href="http://narod.ru/disk/5161590000/War%20And%20Pain%20(Boxset%202004).rar.html">Клац-Клац (Народ)</a>


Last edited by Stupeddragon on 22 Jan 2009, edited 6 times in total.

Top
 Profile  
 
 
PostPosted: 22 Jan 2009 
Пионэръ
Joined: 19 Jan 2009
Posts: 34
Age: 27
Name: .
Че это тег не хочет срабатывать с юрл...

P.S. Исправил


Top
 Profile  
 
 
PostPosted: 23 Jan 2009 
А может смените мне статус?..
User avatar
Joined: 08 Nov 2007
Posts: 634
Lоcаtion: Crimea, UA
Age: 31
Name: Анатолий
Шикарная новость! :true: :thanx:


Top
 Profile  
 
 
PostPosted: 27 Jan 2009 
Thrasher
User avatar
Joined: 07 Oct 2007
Posts: 2755
Lоcаtion: Russia, Moscow
Age: 33
Name: Drunk & Evil
Круто, спасибо :true:

_________________
ВОДКА, БАБЫ И БЛЮЗ / 40° till death... :bodun:
One time we saw some hookers, but when we got closer, we realised it was Mötley Crüe. ©


Top
 Profile  
 
 
PostPosted: 27 Jan 2009 
Хиппей (support team)
User avatar
Joined: 30 Jul 2007
Posts: 93230
Lоcаtion: Киев (Kyiv, UA)
Age: 44
Name: Andrey
Искренний danke schön! :true:


Top
 Profile E-mail  
 
Display posts from previous:  Sort by  
Post new topic Reply to topic  [ 5 posts ] 

All times are UTC + 3 hours


Who is online

Users browsing this forum: No registered users and 1 guest


You cannot post new topics in this forum
You cannot reply to topics in this forum
You cannot edit your posts in this forum
You cannot delete your posts in this forum
You cannot post attachments in this forum

Search for:
Яндекс.Метрика
Powered by phpBB © 2000, 2002, 2005, 2007 phpBB Group