\m/ 80's metal \m/

Информационно-аналитический форум "80 см пыли" (In Search We Trust) "У нас никто никуда не спешит"
Me For You - http://me-4u.com
It is currently 15 Sep 2019

All times are UTC + 3 hours

Spoiler
Chat - temporary registration for foreign users (please leave your application here)







Post new topic Reply to topic  [ 29 posts ]  Go to page Previous  1, 2
Author Message
 
PostPosted: 01 Jul 2019 
Хиппей (support team)
User avatar
Joined: 30 Jul 2007
Posts: 114343
Lоcаtion: Киев (Kyiv, UA)
Age: 46
Name: Andrey
В общем, поспешил я назвать запись хорошей.
Это рип с винила (гуляет по всему интернету), который наш болагский гражданин сжал до мп3 и исказил в соей идиотской манере.
Неужто кроме Бондева все болгары такие вредоносные? :vic:


Димитар. Ещё раз такое зальёшь, снова буду я тебя вынужден удалить на хрен с форума, чтобы не засорял темы говно-ремастерами своими.
Иди, например, снов к Эмилю на форум. Там тебя тоже "любят" все :kro:



зы. Да, альбом очень хорош. Забираю его в топы :true: :true: :true:

7+/10

_________________


Top
 Profile E-mail  
 
 
PostPosted: 03 Jul 2019 
Хиппей (support team)
User avatar
Joined: 30 Jul 2007
Posts: 114343
Lоcаtion: Киев (Kyiv, UA)
Age: 46
Name: Andrey
Хм, странно, что этого альбома нет на Рутрахторе в лосе.


Перезалью на всякий случай вредоностый рип от Димитара.

mirror: Ur-Files l Telega l Narod

_________________


Top
 Profile E-mail  
 
 
PostPosted: 03 Jul 2019 
Хиппей (support team)
User avatar
Joined: 30 Jul 2007
Posts: 114343
Lоcаtion: Киев (Kyiv, UA)
Age: 46
Name: Andrey
Кстати, а кто-нибудь обратил внимание на рифф во вступлении к первому треку? Уж очень он кое-кого напоминает. :smile:

Дио? :scratch:

Или что-то из советского рока? :vic:

_________________


Top
 Profile E-mail  
 
 
PostPosted: 03 Jul 2019 
Хиппей (support team)
User avatar
Joined: 30 Jul 2007
Posts: 114343
Lоcаtion: Киев (Kyiv, UA)
Age: 46
Name: Andrey
Димитар, ты снова "ремастрировал" наш же рип? :lloo:

:arrow: https://80metal.com/viewtopic.php?f=195&t=2607


Не он :pardon:

Рип с форума Эмиля. Пока только начал слушать. Всё норм. Нет этих "войсоверов" и особых изъянов на виниле. Но запись в формате M4A. Но лось. Настоящий такой лось.

Vyper - 1984 - Prepared To Strike [m4a] - vinyl

Image

mirror: Ur-Files l Telega l Uloz l Narod l M-Cloud

_________________


Top
 Profile E-mail  
 
 
PostPosted: 03 Jul 2019 
Хиппей (support team)
User avatar
Joined: 30 Jul 2007
Posts: 114343
Lоcаtion: Киев (Kyiv, UA)
Age: 46
Name: Andrey
Нормальный рип, в общем. Перезалил к нам. Быстро на перемотке послушал. сейчас поставлю на сон слушать.

Обе темы объединю и перенесу в "Бухту", так как лось то имеется и позже ещё вариант будет иной.
А Димитару особая благодарность в ссылке на его уникальный ремастер.
Вдруг кто уже отслушал его творение, так просьба отписаться по качеству :thanx:

_________________


Top
 Profile E-mail  
 
 
PostPosted: 03 Jul 2019 
Хиппей (support team)
User avatar
Joined: 30 Jul 2007
Posts: 114343
Lоcаtion: Киев (Kyiv, UA)
Age: 46
Name: Andrey
Scatterbrain wrote:
Vyper - 1984 - Prepared To Strike [m4a] - vinyl

И ещё несколько раз в кайф послушал альбом, но выявил такое в звуке: детализация, панорамка, частотки и прочее и сама запись божественны, но вот присутствие сибилянтов (и как раз вне вокала) не радует.

Попозже оценю иной рип с винила.

_________________


Top
 Profile E-mail  
 
 
PostPosted: 25 Jul 2019 
Хиппей (support team)
User avatar
Joined: 30 Jul 2007
Posts: 114343
Lоcаtion: Киев (Kyiv, UA)
Age: 46
Name: Andrey
Scatterbrain wrote:
Попозже оценю иной рип с винила.

Оба рипа от DeathPower'а оказались божественным :meloman: :meloman: :meloman:


:arrow: https://rutracker.org/forum/viewtopic.php?t=5381131

_________________


Top
 Profile E-mail  
 
 
PostPosted: 25 Jul 2019 
Хиппей (support team)
User avatar
Joined: 30 Jul 2007
Posts: 114343
Lоcаtion: Киев (Kyiv, UA)
Age: 46
Name: Andrey
Vyper - 1985 - Afraid Of The Dark (EP) [vinyl Rip by deathrower 24/192] [wv]

Image Image

mirror: Ur-Filesl l Telega l Uloz l Narod l M-Cloud

cue
REM DATE 1985
REM COMMENT Greenworld Records – GWD90512; Rip by deathrower for http://rutracker.org
PERFORMER "Vyper"
TITLE "Afraid Of The Dark"
FILE "Vyper - Afraid Of The Dark [Side AB].wv" WAVE
TRACK 01 AUDIO
TITLE "Afraid Of The Dark"
INDEX 01 00:00:00
TRACK 02 AUDIO
TITLE "Diamonds"
INDEX 01 03:59:64
TRACK 03 AUDIO
TITLE "Time Flies"
INDEX 01 07:17:70
TRACK 04 AUDIO
TITLE "Daddy's Girl"
INDEX 01 11:01:50

_________________


Top
 Profile E-mail  
 
 
PostPosted: 25 Jul 2019 
Хиппей (support team)
User avatar
Joined: 30 Jul 2007
Posts: 114343
Lоcаtion: Киев (Kyiv, UA)
Age: 46
Name: Andrey
Vyper - Diamonds



Прикольно здесь вокалист.. под Йеремению из Танкарда косит :thanx:

_________________


Top
 Profile E-mail  
 
Display posts from previous:  Sort by  
Post new topic Reply to topic  [ 29 posts ]  Go to page Previous  1, 2

All times are UTC + 3 hours


Who is online

Users browsing this forum: No registered users and 3 guests


You cannot post new topics in this forum
You cannot reply to topics in this forum
You cannot edit your posts in this forum
You cannot delete your posts in this forum
You cannot post attachments in this forum

Search for:
Яндекс.Метрика
Powered by phpBB © 2000, 2002, 2005, 2007 phpBB Group