\m/ 80's metal \m/

Информационно-аналитический форум "80 см пыли" (In Search We Trust) "У нас никто никуда не спешит"
Me For You - http://me-4u.com
It is currently 22 Sep 2019

All times are UTC + 3 hours

Spoiler
Chat - temporary registration for foreign users (please leave your application here)







Post new topic Reply to topic  [ 7 posts ] 
Author Message
 
PostPosted: 25 Feb 2019 
Хиппей (support team)
User avatar
Joined: 30 Jul 2007
Posts: 114418
Lоcаtion: Киев (Kyiv, UA)
Age: 46
Name: Andrey
Дебютная эпишка Visigoth крута и бесплатна:
https://visigoth.bandcamp.com/album/final-spell

Миник хорош - добрый такой павер под олду. Но вот демка ещё лучше и мощнее :meloman:



Visigoth - 2012 - Final Spell (EP) [flacs]

Image

mirror: Uloz l Drop l Narod l M-Cloud

Visigoth - 2010 - Vengeance (demo) [flacs]

Image

mirror: Uloz l Drop l Narod l M-Cloud

_________________


Top
 Profile E-mail  
 
 
PostPosted: 25 Feb 2019 
Хиппей (support team)
User avatar
Joined: 30 Jul 2007
Posts: 114418
Lоcаtion: Киев (Kyiv, UA)
Age: 46
Name: Andrey
Вынес в отдельную тему, потому как группа более чем достойна.
Особенно, надеюсь, для Толика.
Вот как нужно петь в подобном стиле :meloman: :meloman:

_________________


Top
 Profile E-mail  
 
 
PostPosted: 25 Feb 2019 
Хиппей (support team)
User avatar
Joined: 30 Jul 2007
Posts: 114418
Lоcаtion: Киев (Kyiv, UA)
Age: 46
Name: Andrey
Тыкну в любой попавшийся клип группы на Ютубе, чтоб был пример здесь послушать.


_________________


Top
 Profile E-mail  
 
 
PostPosted: 25 Feb 2019 
Хиппей (support team)
User avatar
Joined: 30 Jul 2007
Posts: 114418
Lоcаtion: Киев (Kyiv, UA)
Age: 46
Name: Andrey
То, что у коллектива вокалист лысый и с мечом в руке - ну честно, случайное совпадение :crazy: :crazy: :crazy: :pardon:

_________________


Top
 Profile E-mail  
 
 
PostPosted: 25 Feb 2019 
Хиппей (support team)
User avatar
Joined: 30 Jul 2007
Posts: 114418
Lоcаtion: Киев (Kyiv, UA)
Age: 46
Name: Andrey
Visigoth - 2015 - The Revenant King [flac]

Image Image Image

mirror: Uloz l Drop l Narod l M-Cloud

Хм, чёт полноформатник меня не очень порадовал.
Ожидал большего. А вышло что-то такое эдакое, не очень сразу и понятное :scratch:
В первую очередь вокал как-то опечалил чуть. Хотя, может расслушать альбом нужно..

6+/10

Image Image Image

Image Image Image Image

log
Exact Audio Copy V1.1 from 23. June 2015

EAC extraction logfile from 20. February 2018, 18:24

Visigoth / The Revenant King

Used drive : HP DVD Writer 1170d Adapter: 1 ID: 1

Read mode : Secure
Utilize accurate stream : Yes
Defeat audio cache : Yes
Make use of C2 pointers : No

Read offset correction : 6
Overread into Lead-In and Lead-Out : No
Fill up missing offset samples with silence : Yes
Delete leading and trailing silent blocks : No
Null samples used in CRC calculations : Yes
Used interface : Native Win32 interface for Win NT & 2000

Used output format : User Defined Encoder
Selected bitrate : 1024 kBit/s
Quality : High
Add ID3 tag : No
Command line compressor : C:\Program Files (x86)\Exact Audio Copy\Flac\flac.exe
Additional command line options : -V -8 -T "Date=%year%" -T "Genre=%genre%" %source%


TOC of the extracted CD

Track | Start | Length | Start sector | End sector
---------------------------------------------------------
1 | 0:00.00 | 8:08.26 | 0 | 36625
2 | 8:08.26 | 6:08.28 | 36626 | 64253
3 | 14:16.54 | 7:13.27 | 64254 | 96755
4 | 21:30.06 | 7:44.17 | 96756 | 131572
5 | 29:14.23 | 6:32.40 | 131573 | 161012
6 | 35:46.63 | 3:21.72 | 161013 | 176159
7 | 39:08.60 | 6:36.74 | 176160 | 205933
8 | 45:45.59 | 5:01.10 | 205934 | 228518
9 | 50:46.69 | 9:43.70 | 228519 | 272313


Range status and errors

Selected range

Filename C:\EAC\ungern666\Visigoth - The Revenant King.wav

Peak level 99.7 %
Extraction speed 7.1 X
Range quality 100.0 %
Test CRC 071DB43B
Copy CRC 071DB43B
Copy OK

No errors occurred


AccurateRip summary

Track 1 accurately ripped (confidence 10) [BCDC1298] (AR v2)
Track 2 accurately ripped (confidence 10) [5C5C86A6] (AR v2)
Track 3 accurately ripped (confidence 10) [AD546C39] (AR v2)
Track 4 accurately ripped (confidence 10) [F660F8C7] (AR v2)
Track 5 accurately ripped (confidence 10) [CEBC6E38] (AR v2)
Track 6 accurately ripped (confidence 10) [6DCB1F70] (AR v2)
Track 7 accurately ripped (confidence 10) [8B73F57A] (AR v2)
Track 8 accurately ripped (confidence 10) [BF9DF675] (AR v2)
Track 9 accurately ripped (confidence 10) [CDF7688E] (AR v2)

All tracks accurately ripped

End of status report

---- CUETools DB Plugin V2.1.6

[CTDB TOCID: oK37gIgeaiQj5M_DCdAZ_IpwbAw-] found
Submit result: oK37gIgeaiQj5M_DCdAZ_IpwbAw- has been confirmed
Track | CTDB Status
1 | (23/23) Accurately ripped
2 | (23/23) Accurately ripped
3 | (23/23) Accurately ripped
4 | (23/23) Accurately ripped
5 | (23/23) Accurately ripped
6 | (23/23) Accurately ripped
7 | (23/23) Accurately ripped
8 | (23/23) Accurately ripped
9 | (23/23) Accurately ripped


==== Log checksum D0877B24F9A051942767C45618D99235AD010BCF0C9B9C386C89954CB90504D9 ====

cue
REM DATE 2015
REM DISCID 810E2E09
REM COMMENT "ExactAudioCopy v1.1"
PERFORMER "Visigoth"
TITLE "The Revenant King"
FILE "Visigoth - The Revenant King.flac" WAVE
TRACK 01 AUDIO
TITLE "The Revenant King"
PERFORMER "Visigoth"
INDEX 01 00:00:00
TRACK 02 AUDIO
TITLE "Dungeon Master"
PERFORMER "Visigoth"
INDEX 01 08:08:26
TRACK 03 AUDIO
TITLE "Mammoth Rider"
PERFORMER "Visigoth"
INDEX 01 14:16:54
TRACK 04 AUDIO
TITLE "Blood Sacrifice"
PERFORMER "Visigoth"
INDEX 01 21:30:06
TRACK 05 AUDIO
TITLE "Iron Brotherhood"
PERFORMER "Visigoth"
INDEX 01 29:14:23
TRACK 06 AUDIO
TITLE "Necropolis (Manilla Road cover)"
PERFORMER "Visigoth"
INDEX 01 35:46:63
TRACK 07 AUDIO
TITLE "Vengeance"
PERFORMER "Visigoth"
INDEX 01 39:08:60
TRACK 08 AUDIO
TITLE "Creature Of Desire"
PERFORMER "Visigoth"
INDEX 01 45:45:59
TRACK 09 AUDIO
TITLE "From The Arcane Mists Of Prophecy"
PERFORMER "Visigoth"
INDEX 01 50:46:69

_________________


Top
 Profile E-mail  
 
 
PostPosted: 26 Feb 2019 
Хиппей (support team)
User avatar
Joined: 30 Jul 2007
Posts: 114418
Lоcаtion: Киев (Kyiv, UA)
Age: 46
Name: Andrey
Visigoth - 2018 - Conqueror's Oath [flac]

Image Image Image

mirror: Uloz l Drop l Narod l M-Cloud

Этот альбом оказался получше, но всё равно ещё не торт :vic:

Отдельно песни некоторые очень хороши и даже шедевральны, но вот весь альбом слушается как-то не так... :lloo:

7/10

Image Image

Image Image

Image Image

Image Image

log
Exact Audio Copy V1.1 from 23. June 2015

EAC extraction logfile from 21. February 2018, 15:37

Visigoth / Conqueror's Oath

Used drive : HP DVD Writer 1170d Adapter: 1 ID: 1

Read mode : Secure
Utilize accurate stream : Yes
Defeat audio cache : Yes
Make use of C2 pointers : No

Read offset correction : 6
Overread into Lead-In and Lead-Out : No
Fill up missing offset samples with silence : Yes
Delete leading and trailing silent blocks : No
Null samples used in CRC calculations : Yes
Used interface : Native Win32 interface for Win NT & 2000

Used output format : User Defined Encoder
Selected bitrate : 1024 kBit/s
Quality : High
Add ID3 tag : No
Command line compressor : C:\Program Files (x86)\Exact Audio Copy\Flac\flac.exe
Additional command line options : -V -8 -T "Date=%year%" -T "Genre=%genre%" %source%


TOC of the extracted CD

Track | Start | Length | Start sector | End sector
---------------------------------------------------------
1 | 0:00.00 | 6:01.65 | 0 | 27139
2 | 6:01.65 | 5:28.56 | 27140 | 51795
3 | 11:30.46 | 4:32.60 | 51796 | 72255
4 | 16:03.31 | 4:55.05 | 72256 | 94385
5 | 20:58.36 | 6:53.49 | 94386 | 125409
6 | 27:52.10 | 3:49.11 | 125410 | 142595
7 | 31:41.21 | 4:18.36 | 142596 | 161981
8 | 35:59.57 | 6:25.10 | 161982 | 190866


Range status and errors

Selected range

Filename C:\EAC\ungern666\Visigoth - Conqueror's Oath.wav

Peak level 96.6 %
Extraction speed 6.6 X
Range quality 100.0 %
Test CRC BB6E0B1F
Copy CRC BB6E0B1F
Copy OK

No errors occurred


AccurateRip summary

Track 1 not present in database
Track 2 not present in database
Track 3 not present in database
Track 4 not present in database
Track 5 not present in database
Track 6 not present in database
Track 7 not present in database
Track 8 not present in database

None of the tracks are present in the AccurateRip database

End of status report

---- CUETools DB Plugin V2.1.6

[CTDB TOCID: XgnQlo2HMJohP4j9nHIRhEQbmAY-] found
Submit result: XgnQlo2HMJohP4j9nHIRhEQbmAY- has been confirmed
Track | CTDB Status
1 | (11/11) Accurately ripped
2 | (11/11) Accurately ripped
3 | (11/11) Accurately ripped
4 | (11/11) Accurately ripped
5 | (11/11) Accurately ripped
6 | (11/11) Accurately ripped
7 | (11/11) Accurately ripped
8 | (11/11) Accurately ripped


==== Log checksum E582DA2A82F0F537B2771BD019EFD3D59C646ACB4628F94F3565B4C893532D7E ====

cue
REM DATE 2018
REM DISCID 6509F008
REM COMMENT "ExactAudioCopy v1.1"
PERFORMER "Visigoth"
TITLE "Conqueror's Oath"
FILE "Visigoth - Conqueror's Oath.flac" WAVE
TRACK 01 AUDIO
TITLE "Steel And Silver"
PERFORMER "Visigoth"
INDEX 01 00:00:00
TRACK 02 AUDIO
TITLE "Warrior Queen"
PERFORMER "Visigoth"
INDEX 01 06:01:65
TRACK 03 AUDIO
TITLE "Outlive Them All"
PERFORMER "Visigoth"
INDEX 01 11:30:46
TRACK 04 AUDIO
TITLE "Hammerforged"
PERFORMER "Visigoth"
INDEX 01 16:03:31
TRACK 05 AUDIO
TITLE "Traitor's Gate"
PERFORMER "Visigoth"
INDEX 01 20:58:36
TRACK 06 AUDIO
TITLE "Salt City"
PERFORMER "Visigoth"
INDEX 01 27:52:10
TRACK 07 AUDIO
TITLE "Blades In The Night"
PERFORMER "Visigoth"
INDEX 01 31:41:21
TRACK 08 AUDIO
TITLE "The Conqueror's Oath"
PERFORMER "Visigoth"
INDEX 01 35:59:57

_________________


Top
 Profile E-mail  
 
 
PostPosted: 10 Apr 2019 
Хиппей (support team)
User avatar
Joined: 30 Jul 2007
Posts: 114418
Lоcаtion: Киев (Kyiv, UA)
Age: 46
Name: Andrey
Visigoth "Fireseeker" (OFFICIAL)



Свежий сингл :meloman:

_________________


Top
 Profile E-mail  
 
Display posts from previous:  Sort by  
Post new topic Reply to topic  [ 7 posts ] 

All times are UTC + 3 hours


Who is online

Users browsing this forum: No registered users and 2 guests


You cannot post new topics in this forum
You cannot reply to topics in this forum
You cannot edit your posts in this forum
You cannot delete your posts in this forum
You cannot post attachments in this forum

Search for:
Яндекс.Метрика
Powered by phpBB © 2000, 2002, 2005, 2007 phpBB Group