\m/ 80's metal \m/

Информационно-аналитический форум "80 см пыли" (In Search We Trust) "У нас никто никуда не спешит"
Железнодорожная биржа - RailAgent
It is currently 23 Sep 2017

All times are UTC + 3 hours

Spoiler
Chat - temporary registration for foreign users (please leave your application here)







Post new topic Reply to topic  [ 29 posts ]  Go to page Previous  1, 2
Author Message
 
PostPosted: 11 Aug 2016 
Генеральный thrasher
User avatar
Joined: 03 Oct 2008
Posts: 3148
Lоcаtion: Ханты-Мансийский АО
Age: 42
Name: Сергей
Раритетик из моих запасников.Группа на любителя конечно (как впрочем и многое здесь).И всё же заслушайте.Может кому-нибудь придётся по душе.
Image

Year:1996
Style:Power/Thrash Metal
Country:Germany
Archive:Flac+Cue+Log+Scans
Size:134Mb
Source:my CD
Label:Self-Release

Line-Up:
Andy Süss - bass
Engel - drums
Chris - vocals
Wutz - guitars

Tracklist:
01. Depravity 03:45
02. Uncontrolled Aggression 04:14
03. Destroy Myself 06:09
04. Psychoball 04:33

"Cue"
REM GENRE "Power/Thrash Metal"
REM DATE 1996
REM DISCID 2C045F04
REM COMMENT "ExactAudioCopy v1.1"
PERFORMER "Vex"
TITLE "(Power/Thrash) -"
FILE "Vex - Uncontrolled Aggression.flac" WAVE
TRACK 01 AUDIO
TITLE "Depravity"
PERFORMER "Vex"
FLAGS DCP
INDEX 01 00:00:00
TRACK 02 AUDIO
TITLE "Uncontrolled Aggression"
PERFORMER "Vex"
FLAGS DCP
INDEX 01 03:44:33
TRACK 03 AUDIO
TITLE "Destroy Myself"
PERFORMER "Vex"
FLAGS DCP
INDEX 01 07:58:25
TRACK 04 AUDIO
TITLE "Psychoball"
PERFORMER "Vex"
FLAGS DCP
INDEX 01 14:06:55

"Log"
Exact Audio Copy V1.1 from 23. June 2015

Отчёт EAC об извлечении, выполненном 11. августа 2016, 8:35

Vex / Uncontrolled Aggression

Дисковод: HL-DT-STDVDRAM GTA0N Adapter: 1 ID: 0

Режим чтения : Достоверность
Использование точного потока : Да
Отключение кэша аудио : Да
Использование указателей C2 : Нет

Коррекция смещения при чтении : 102
Способность читать области Lead-in и Lead-out : Нет
Заполнение пропущенных сэмплов тишиной : Да
Удаление блоков с тишиной в начале и конце : Нет
При вычислениях CRC использовались нулевые сэмплы : Да
Интерфейс : Встроенный Win32-интерфейс для Win NT/2000

Выходной формат : Пользовательский кодировщик
Выбранный битрейт : 768 kBit/s
Качество : Высокий
Добавление ID3-тега : Нет
Утилита сжатия : C:\Program Files (x86)\Exact Audio Copy\FLAC\FLAC.EXE
Дополнительные параметры : -6 -V -T "ARTIST=%artist%" -T "TITLE=%title%" -T "ALBUM=%albumtitle%" -T "DATE=%year%" -T "TRACKNUMBER=%tracknr%" -T "GENRE=%genre%" -T "COMMENT=%comment%" -T "BAND=%albuminterpret%" -T "ALBUMARTIST=%albuminterpret%" -T "COMPOSER=%composer%" %haslyrics%--tag-from-file=LYRICS="%lyricsfile%"%haslyrics% -T "DISCNUMBER=%cdnumber%" -T "TOTALDISCS=%totalcds%" -T "TOTALTRACKS=%numtracks%" %hascover%--picture="%coverfile%"%hascover% %source% -o %dest%


TOC извлечённого CD

Трек | Старт | Длительность | Начальный сектор | Конечный сектор
---------------------------------------------------------------------
1 | 0:00.00 | 3:44.33 | 0 | 16832
2 | 3:44.33 | 4:13.67 | 16833 | 35874
3 | 7:58.25 | 6:08.30 | 35875 | 63504
4 | 14:06.55 | 4:32.73 | 63505 | 83977


Характеристики диапазона извлечения и сообщения об ошибках

Выбранный диапазон

Имя файла C:\Users\магазин\Music\Vex - Uncontrolled Aggression.wav

Пиковый уровень 97.7 %
Скорость извлечения 3.2 X
Качество диапазона 100.0 %
CRC копии 54EC22F1
Копирование... OK

Ошибок не произошло


AccurateRip: сводка

Трек 1 отсутствует в базе данных
Трек 2 отсутствует в базе данных
Трек 3 отсутствует в базе данных
Трек 4 отсутствует в базе данных

Ни одного трека нет в базе AccurateRip

Конец отчёта

---- CUETools DB Plugin V2.1.6

[CTDB TOCID: ez0GBT.3nlqEBoHusBRIDrqlfe0-] disk not present in database
Submit result: ez0GBT.3nlqEBoHusBRIDrqlfe0- has been uploaded


Uncontrolled Aggression

Image

Year:1996
Style:Power/Thrash Metal
Country:Germany
Archive:Flac+Cue+Log+Scans
Size:339Mb
Source:my CD
Label:D&S Records

Line-Up:
Andy Süss - bass
Engel - drums
Chris - vocals
Tom - guitars

Tracklist:
01. Shattered Memories 04:22
02. Lost My Luck 02:23
03. Act Of Revenge 05:37
04. Fall 04:03
05. Becoming Harder Than Life 04:06
06. Won't Be Fooled Again 05:14
07. No Right to Live 04:09
08. Pulling My Own Strings 03:57
09. Schizophrenia 04:05
10. Killed by Life 03:50
11. B.M. (Biene Maja) (Karel Gott cover) 02:19

"Cue"
REM GENRE "Power/Thrash Metal"
REM DATE 1996
REM DISCID 8B0A460B
REM COMMENT "ExactAudioCopy v1.1"
PERFORMER "Vex"
TITLE "Act Of Revenge"
FILE "Vex - Act Of Revenge.flac" WAVE
TRACK 01 AUDIO
TITLE "Shattered Memories"
PERFORMER "Vex"
FLAGS DCP
INDEX 01 00:00:00
TRACK 02 AUDIO
TITLE "Lost My Luck"
PERFORMER "Vex"
FLAGS DCP
INDEX 00 04:21:49
INDEX 01 04:21:55
TRACK 03 AUDIO
TITLE "Act Of Revenge"
PERFORMER "Vex"
FLAGS DCP
INDEX 00 06:44:36
INDEX 01 06:44:50
TRACK 04 AUDIO
TITLE "Fall"
PERFORMER "Vex"
FLAGS DCP
INDEX 00 12:21:28
INDEX 01 12:21:35
TRACK 05 AUDIO
TITLE "Becoming Harder Than Life"
PERFORMER "Vex"
FLAGS DCP
INDEX 00 16:23:74
INDEX 01 16:24:09
TRACK 06 AUDIO
TITLE "Won't Be Fooled Again"
PERFORMER "Vex"
FLAGS DCP
INDEX 00 20:29:09
INDEX 01 20:29:26
TRACK 07 AUDIO
TITLE "No Right to Live"
PERFORMER "Vex"
FLAGS DCP
INDEX 00 25:42:38
INDEX 01 25:42:48
TRACK 08 AUDIO
TITLE "Pulling My Own Strings"
PERFORMER "Vex"
FLAGS DCP
INDEX 00 29:50:53
INDEX 01 29:51:06
TRACK 09 AUDIO
TITLE "Schizophrenia"
PERFORMER "Vex"
FLAGS DCP
INDEX 00 33:46:36
INDEX 01 33:47:21
TRACK 10 AUDIO
TITLE "Killed By Life"
PERFORMER "Vex"
FLAGS DCP
INDEX 00 37:52:16
INDEX 01 37:52:21
TRACK 11 AUDIO
TITLE "B.M. (Biene Maja)"
PERFORMER "Vex"
FLAGS DCP
INDEX 00 41:40:23
INDEX 01 41:41:36

"Log"
Exact Audio Copy V1.1 from 23. June 2015

Отчёт EAC об извлечении, выполненном 11. августа 2016, 8:23

Vex / Act Of Revenge

Дисковод: HL-DT-STDVDRAM GTA0N Adapter: 1 ID: 0

Режим чтения : Достоверность
Использование точного потока : Да
Отключение кэша аудио : Да
Использование указателей C2 : Нет

Коррекция смещения при чтении : 102
Способность читать области Lead-in и Lead-out : Нет
Заполнение пропущенных сэмплов тишиной : Да
Удаление блоков с тишиной в начале и конце : Нет
При вычислениях CRC использовались нулевые сэмплы : Да
Интерфейс : Встроенный Win32-интерфейс для Win NT/2000

Выходной формат : Пользовательский кодировщик
Выбранный битрейт : 768 kBit/s
Качество : Высокий
Добавление ID3-тега : Нет
Утилита сжатия : C:\Program Files (x86)\Exact Audio Copy\FLAC\FLAC.EXE
Дополнительные параметры : -6 -V -T "ARTIST=%artist%" -T "TITLE=%title%" -T "ALBUM=%albumtitle%" -T "DATE=%year%" -T "TRACKNUMBER=%tracknr%" -T "GENRE=%genre%" -T "COMMENT=%comment%" -T "BAND=%albuminterpret%" -T "ALBUMARTIST=%albuminterpret%" -T "COMPOSER=%composer%" %haslyrics%--tag-from-file=LYRICS="%lyricsfile%"%haslyrics% -T "DISCNUMBER=%cdnumber%" -T "TOTALDISCS=%totalcds%" -T "TOTALTRACKS=%numtracks%" %hascover%--picture="%coverfile%"%hascover% %source% -o %dest%


TOC извлечённого CD

Трек | Старт | Длительность | Начальный сектор | Конечный сектор
---------------------------------------------------------------------
1 | 0:00.00 | 4:21.55 | 0 | 19629
2 | 4:21.55 | 2:22.70 | 19630 | 30349
3 | 6:44.50 | 5:36.60 | 30350 | 55609
4 | 12:21.35 | 4:02.49 | 55610 | 73808
5 | 16:24.09 | 4:05.17 | 73809 | 92200
6 | 20:29.26 | 5:13.22 | 92201 | 115697
7 | 25:42.48 | 4:08.33 | 115698 | 134330
8 | 29:51.06 | 3:56.15 | 134331 | 152045
9 | 33:47.21 | 4:05.00 | 152046 | 170420
10 | 37:52.21 | 3:49.15 | 170421 | 187610
11 | 41:41.36 | 2:09.17 | 187611 | 197302


Характеристики диапазона извлечения и сообщения об ошибках

Выбранный диапазон

Имя файла C:\Users\магазин\Music\Vex - Act Of Revenge.wav

Пиковый уровень 99.5 %
Скорость извлечения 3.9 X
Качество диапазона 100.0 %
CRC копии 37FC1806
Копирование... OK

Ошибок не произошло


AccurateRip: сводка

Трек 1 : извлечено точно (доверие 1) [4F6AA900] (AR v2)
Трек 2 : извлечено точно (доверие 1) [4969463A] (AR v2)
Трек 3 : извлечено точно (доверие 1) [D549E381] (AR v2)
Трек 4 : извлечено точно (доверие 1) [855AEC97] (AR v2)
Трек 5 : извлечено точно (доверие 1) [D3AFEA2D] (AR v2)
Трек 6 : извлечено точно (доверие 1) [7AD069A2] (AR v2)
Трек 7 : извлечено точно (доверие 1) [200FA588] (AR v2)
Трек 8 : извлечено точно (доверие 1) [0B8ACD1F] (AR v2)
Трек 9 : извлечено точно (доверие 1) [2107B80E] (AR v2)
Трек 10 : извлечено точно (доверие 1) [7B8B0FB5] (AR v2)
Трек 11 : извлечено точно (доверие 1) [5663F074] (AR v2)

Все треки извлечены точно

Конец отчёта

---- CUETools DB Plugin V2.1.6

[CTDB TOCID: IyMgiIMTH1kalkgt0byS8yhknuY-] disk not present in database
Submit result: IyMgiIMTH1kalkgt0byS8yhknuY- has been uploaded


Act Of Revenge


Top
 Profile  
 
 
PostPosted: 17 Aug 2016 
Хиппей (support team)
User avatar
Joined: 30 Jul 2007
Posts: 93235
Lоcаtion: Киев (Kyiv, UA)
Age: 44
Name: Andrey
Примерно с 5 вечера по сейчас слушал полный альбом и...
Сдаётся мне, это форменное издевательство и провокация :crazy:

В общем, попробую или на ночь поставить, как колыбельную, или с утра в наушниках оценить эту кашу. Но, кажется, это такой большой прикол - играть одновременно как клоны 3-4-х групп :fingal:

_________________


Top
 Profile E-mail  
 
 
PostPosted: 17 Aug 2016 
Я набрал 1000 сообщений!
Joined: 09 Jul 2008
Posts: 1411
Age: 44
Name: Сергей
а тебе его прошлые евреи такого впечатления не оставили? )

ЗЫ сам по этой группе ниче не пишу пока, потому что так и не смог ещё послушать внимательно.. )


Top
 Profile  
 
 
PostPosted: 18 Aug 2016 
Хиппей (support team)
User avatar
Joined: 30 Jul 2007
Posts: 93235
Lоcаtion: Киев (Kyiv, UA)
Age: 44
Name: Andrey
boojum wrote:
а тебе его прошлые евреи такого впечатления не оставили? )

Какие именно? =)

_________________


Top
 Profile E-mail  
 
 
PostPosted: 18 Aug 2016 
Я набрал 1000 сообщений!
Joined: 09 Jul 2008
Posts: 1411
Age: 44
Name: Сергей
думал про Black Sachbak, но не, оно не такое


Top
 Profile  
 
 
PostPosted: 18 Aug 2016 
Хиппей (support team)
User avatar
Joined: 30 Jul 2007
Posts: 93235
Lоcаtion: Киев (Kyiv, UA)
Age: 44
Name: Andrey
Аа, не, тех ешо не слушал, и явно впервые название увидел :vic:

_________________


Top
 Profile E-mail  
 
 
PostPosted: 20 Sep 2016 
Хиппей (support team)
User avatar
Joined: 30 Jul 2007
Posts: 93235
Lоcаtion: Киев (Kyiv, UA)
Age: 44
Name: Andrey
thorbeorn wrote:
Act Of Revenge


mirror: iFolder l Narod l M-Cloud

Прошёл ровно месяц.
Альбом, уж простите, фуфло :(
Невнятная попытка сыграть позднюю Pantera с Филом, оказалась лишь голимой попыткой.

2/10

Зато заберу альбом и вокалиста в первый клон Ансельмо :kro:

_________________


Top
 Profile E-mail  
 
 
PostPosted: 20 Sep 2016 
Хиппей (support team)
User avatar
Joined: 30 Jul 2007
Posts: 93235
Lоcаtion: Киев (Kyiv, UA)
Age: 44
Name: Andrey


Взял первый же попавшийся трэк с Ютуба. Хоть он оказался и 10-м :crazy:

ps. Хотя, как раз этот трэк оказался наоборот - самым лучшим на альбоме и не показательным.

Сейчас залью, первый. например.

_________________


Top
 Profile E-mail  
 
 
PostPosted: 20 Sep 2016 
Хиппей (support team)
User avatar
Joined: 30 Jul 2007
Posts: 93235
Lоcаtion: Киев (Kyiv, UA)
Age: 44
Name: Andrey
Vex - Shattered Memories

_________________


Top
 Profile E-mail  
 
 
PostPosted: 27 Sep 2016 
Хиппей (support team)
User avatar
Joined: 30 Jul 2007
Posts: 93235
Lоcаtion: Киев (Kyiv, UA)
Age: 44
Name: Andrey
thorbeorn wrote:
Uncontrolled Aggression


mirror: iFolder l Narod l M-Cloud

Миник более понравился, нежели полный альбом.
Да, тоже дофигища ПантероподобЪных воплей и грува, но и технотрэша поболее будет.
Или.. или это мне так щас показалось :pardon:

4+/10

_________________


Top
 Profile E-mail  
 
Display posts from previous:  Sort by  
Post new topic Reply to topic  [ 29 posts ]  Go to page Previous  1, 2

All times are UTC + 3 hours


Who is online

Users browsing this forum: No registered users and 2 guests


You cannot post new topics in this forum
You cannot reply to topics in this forum
You cannot edit your posts in this forum
You cannot delete your posts in this forum
You cannot post attachments in this forum

Search for:
Яндекс.Метрика
Powered by phpBB © 2000, 2002, 2005, 2007 phpBB Group