\m/ 80's metal \m/

Информационно-аналитический форум "80 см пыли" (In Search We Trust) "У нас никто никуда не спешит"
Железнодорожная биржа - RailAgent
It is currently 14 Dec 2017

All times are UTC + 3 hours

Spoiler
Chat - temporary registration for foreign users (please leave your application here)







Post new topic Reply to topic  [ 8 posts ] 
Author Message
 
PostPosted: 26 Jun 2016 
5-speed satisfactor
User avatar
Joined: 16 Feb 2009
Posts: 3364
Lоcаtion: New York, USA
Age: 39
Name: Leonid
Вроде как этот. A нет, так какой то из них. См. сканы.

Оформите плиз. 5 дней:

https://we.tl/sWysBSl2vQ

Image

1. I Profit - 07:05
2. Officer Nice - 05:24
3. Subterfuge - 04:39
4. Engulfed By Flames - 03:54
5. World In A World - 04:11
6. Mentally Afflicted - 05:50
7. Liquid Courage - 05:27
8. Oppressing The Masses - 04:58

TPT:

log
Exact Audio Copy V0.99 prebeta 5 from 4. May 2009

EAC extraction logfile from 31. May 2016, 23:20

Vio-Lence / Oppressing The Masses

Used drive : PLEXTOR DVDR PX-760A Adapter: 4 ID: 0

Read mode : Secure
Utilize accurate stream : Yes
Defeat audio cache : Yes
Make use of C2 pointers : No

Read offset correction : 30
Overread into Lead-In and Lead-Out : Yes
Fill up missing offset samples with silence : Yes
Delete leading and trailing silent blocks : No
Null samples used in CRC calculations : No
Used interface : Installed external ASPI interface

Used output format : Internal WAV Routines
Sample format : 44.100 Hz; 16 Bit; Stereo


TOC of the extracted CD

Track | Start | Length | Start sector | End sector
---------------------------------------------------------
1 | 0:00.32 | 7:04.55 | 32 | 31886
2 | 7:05.12 | 5:23.65 | 31887 | 56176
3 | 12:29.02 | 4:38.48 | 56177 | 77074
4 | 17:07.50 | 3:54.30 | 77075 | 94654
5 | 21:02.05 | 4:11.27 | 94655 | 113506
6 | 25:13.32 | 5:49.38 | 113507 | 139719
7 | 31:02.70 | 5:27.17 | 139720 | 164261
8 | 36:30.12 | 4:58.25 | 164262 | 186636


Range status and errors

Selected range

Filename C:\Shared\rips\Vio-Lence\Oppressing The Masses\Vio-Lence - Oppressing The Masses.wav

Peak level 100.0 %
Range quality 99.9 %
Copy CRC 407FE7D8
Copy OK

No errors occurred

End of status report

------------------------------------------------------------

Exact Audio Copy V0.99 prebeta 5 from 4. May 2009

EAC extraction logfile from 31. May 2016, 23:35

Vio-Lence / Oppressing The Masses

Used drive : PLEXTOR DVDR PX-760A Adapter: 4 ID: 0

Read mode : Secure
Utilize accurate stream : Yes
Defeat audio cache : Yes
Make use of C2 pointers : No

Read offset correction : 11202
Overread into Lead-In and Lead-Out : Yes
Fill up missing offset samples with silence : Yes
Delete leading and trailing silent blocks : No
Null samples used in CRC calculations : No
Used interface : Installed external ASPI interface
Gap handling : Appended to next track

Used output format : Internal WAV Routines
Sample format : 44.100 Hz; 16 Bit; Stereo


TOC of the extracted CD

Track | Start | Length | Start sector | End sector
---------------------------------------------------------
1 | 0:00.32 | 7:04.55 | 32 | 31886
2 | 7:05.12 | 5:23.65 | 31887 | 56176
3 | 12:29.02 | 4:38.48 | 56177 | 77074
4 | 17:07.50 | 3:54.30 | 77075 | 94654
5 | 21:02.05 | 4:11.27 | 94655 | 113506
6 | 25:13.32 | 5:49.38 | 113507 | 139719
7 | 31:02.70 | 5:27.17 | 139720 | 164261
8 | 36:30.12 | 4:58.25 | 164262 | 186636


Track 8

Filename C:\Shared\rips\Vio-Lence\Oppressing The Masses\08. Oppressing The Masses.wav

Peak level 100.0 %
Track quality 100.0 %
Copy CRC BC02E46B
Copy OK

No errors occurred

End of status report

cue
REM GENRE "Thrash Metal"
REM DATE 1990
REM DISCID 6209B808
REM COMMENT "ExactAudioCopy v0.99pb5"
CATALOG 0075678210525
PERFORMER "Vio-Lence"
TITLE "Oppressing The Masses"
FILE "Vio-Lence - Oppressing The Masses.wav" WAVE
TRACK 01 AUDIO
TITLE "I Profit"
PERFORMER "Vio-Lence"
INDEX 00 00:00:00
INDEX 01 00:00:32
TRACK 02 AUDIO
TITLE "Officer Nice"
PERFORMER "Vio-Lence"
INDEX 01 07:05:12
TRACK 03 AUDIO
TITLE "Subterfuge"
PERFORMER "Vio-Lence"
INDEX 01 12:29:02
TRACK 04 AUDIO
TITLE "Engulfed By Flames"
PERFORMER "Vio-Lence"
INDEX 01 17:07:50
TRACK 05 AUDIO
TITLE "World In A World"
PERFORMER "Vio-Lence"
INDEX 01 21:02:05
TRACK 06 AUDIO
TITLE "Mentally Afflicted"
PERFORMER "Vio-Lence"
INDEX 01 25:13:32
TRACK 07 AUDIO
TITLE "Liquid Courage"
PERFORMER "Vio-Lence"
INDEX 01 31:02:70
TRACK 08 AUDIO
TITLE "Oppressing The Masses"
PERFORMER "Vio-Lence"
INDEX 01 36:30:12

_________________
Death rules! Metal to all who oppose!


Last edited by metaleonid on 26 Jun 2016, edited 1 time in total.

Top
 Profile  
 
 
PostPosted: 26 Jun 2016 
Хиппей (support team)
User avatar
Joined: 30 Jul 2007
Posts: 97007
Lоcаtion: Киев (Kyiv, UA)
Age: 44
Name: Andrey
Лёнябляхамухатыхотьсюдассылкинаскачавиниебростьплиз :esel: :esel: :esel:

_________________


Top
 Profile E-mail  
 
 
PostPosted: 26 Jun 2016 
Хиппей (support team)
User avatar
Joined: 30 Jul 2007
Posts: 97007
Lоcаtion: Киев (Kyiv, UA)
Age: 44
Name: Andrey
:thanx:

mirror: iFolder l Narod l M-Cloud

_________________


Top
 Profile E-mail  
 
 
PostPosted: 26 Jun 2016 
5-speed satisfactor
User avatar
Joined: 16 Feb 2009
Posts: 3364
Lоcаtion: New York, USA
Age: 39
Name: Leonid
Лёнябляхамухатыхотьсюдассылкинаскачавиниебростьплиз :esel: :esel: :esel:


Еще на залилась.

_________________
Death rules! Metal to all who oppose!


Top
 Profile  
 
 
PostPosted: 26 Jun 2016 
Хиппей (support team)
User avatar
Joined: 30 Jul 2007
Posts: 97007
Lоcаtion: Киев (Kyiv, UA)
Age: 44
Name: Andrey
А мне на имйэл уже :lloo:

Thank You, чо :kro:

_________________


Top
 Profile E-mail  
 
 
PostPosted: 26 Jun 2016 
Работнечег
User avatar
Joined: 28 Aug 2007
Posts: 5019
Lоcаtion: г. Москва
Age: 28
Name: Дима
Спасибо, Леонид! :thanx:


Top
 Profile E-mail  
 
 
PostPosted: 26 Jun 2016 
Рарник и трушник
User avatar
Joined: 25 Dec 2009
Posts: 7176
Lоcаtion: Москва
Age: 52
Name: Виталий
Спасибо, Лёня! :thanx:


Top
 Profile  
 
 
PostPosted: 27 Jun 2016 
А может смените мне статус?..
User avatar
Joined: 24 Dec 2008
Posts: 556
Age: 43
Name: Дмитрий
Спасибо!


Top
 Profile  
 
Display posts from previous:  Sort by  
Post new topic Reply to topic  [ 8 posts ] 

All times are UTC + 3 hours


Who is online

Users browsing this forum: No registered users and 1 guest


You cannot post new topics in this forum
You cannot reply to topics in this forum
You cannot edit your posts in this forum
You cannot delete your posts in this forum
You cannot post attachments in this forum

Search for:
Яндекс.Метрика
Powered by phpBB © 2000, 2002, 2005, 2007 phpBB Group