\m/ 80's metal \m/

Информационно-аналитический форум "80 см пыли" (In Search We Trust) "У нас никто никуда не спешит"
Железнодорожная биржа - RailAgent
It is currently 24 Oct 2017

All times are UTC + 3 hours

Spoiler
Chat - temporary registration for foreign users (please leave your application here)







Post new topic Reply to topic  [ 4 posts ] 
Author Message
 
PostPosted: 20 Jun 2016 
Partisanen - nicht kapitulieren!!
User avatar
Joined: 25 Dec 2011
Posts: 5582
Lоcаtion: партизанские леса
Age: 45
Name: Владимир
Viking Skull [2005] Born in Hell [EAC-FLAC]
Image

01. Born in Hell 02:49
02. Crank the Volume 03:55
03. Red Hot Woman 03:18
04. Frostbite 04:05
05. Saddle Up 02:56
06. Seedealer 02:45
07. Beers, Drugs & Bitches 05:18
08. Rock and Roll Suicide 02:56
09. Dirty Hole 03:06
10. Inject My Woman 03:13
11. You Can't Kill Rock and Roll 03:28

EAC log | +
Code:
Exact Audio Copy V0.99 prebeta 5 from 4. May 2009

EAC extraction logfile from 10. July 2010, 19:52

Viking Skull / Born in Hell

Used drive  : SONY    DVD RW DRU-720A   Adapter: 1  ID: 0

Read mode               : Secure
Utilize accurate stream : Yes
Defeat audio cache      : Yes
Make use of C2 pointers : No

Read offset correction                      : 12
Overread into Lead-In and Lead-Out          : No
Fill up missing offset samples with silence : Yes
Delete leading and trailing silent blocks   : No
Null samples used in CRC calculations       : Yes
Used interface                              : Installed external ASPI interface
Gap handling                                : Appended to previous track

Used output format              : User Defined Encoder
Selected bitrate                : 1024 kBit/s
Quality                         : High
Add ID3 tag                     : No
Command line compressor         : C:\Program Files\Exact Audio Copy\FLAC\FLAC.EXE
Additional command line options : -V -8 -T "artist=%a" -T "title=%t" -T "album=%g" -T "date=%y" -T "tracknumber=%n" -T "genre=%m" %s


TOC of the extracted CD

     Track |   Start  |  Length  | Start sector | End sector
    ---------------------------------------------------------
        1  |  0:00.00 |  2:49.61 |         0    |    12735   
        2  |  2:49.61 |  3:55.00 |     12736    |    30360   
        3  |  6:44.61 |  3:18.27 |     30361    |    45237   
        4  | 10:03.13 |  4:05.32 |     45238    |    63644   
        5  | 14:08.45 |  2:56.74 |     63645    |    76918   
        6  | 17:05.44 |  2:45.33 |     76919    |    89326   
        7  | 19:51.02 |  5:18.20 |     89327    |   113196   
        8  | 25:09.22 |  2:56.08 |    113197    |   126404   
        9  | 28:05.30 |  3:06.61 |    126405    |   140415   
       10  | 31:12.16 |  3:13.47 |    140416    |   154937   
       11  | 34:25.63 |  3:28.65 |    154938    |   170602   


Track  1

     Filename F:\THE RIPPER\01. Viking Skull - Born in Hell.wav

     Pre-gap length  0:00:02.00

     Peak level 97.6 %
     Track quality 100.0 %
     Test CRC 94E84105
     Copy CRC 94E84105
     Accurately ripped (confidence 2)  [92EE9D57]
     Copy OK

Track  2

     Filename F:\THE RIPPER\02. Viking Skull - Crank the Volume.wav

     Pre-gap length  0:00:02.00

     Peak level 97.8 %
     Track quality 100.0 %
     Test CRC 1A744EBE
     Copy CRC 1A744EBE
     Accurately ripped (confidence 2)  [3059F4B2]
     Copy OK

Track  3

     Filename F:\THE RIPPER\03. Viking Skull - Red Hot Woman.wav

     Pre-gap length  0:00:02.00

     Peak level 97.8 %
     Track quality 100.0 %
     Test CRC DC357D35
     Copy CRC DC357D35
     Accurately ripped (confidence 2)  [D4182F45]
     Copy OK

Track  4

     Filename F:\THE RIPPER\04. Viking Skull - Frostbite.wav

     Pre-gap length  0:00:02.01

     Peak level 96.5 %
     Track quality 100.0 %
     Test CRC 27E0C459
     Copy CRC 27E0C459
     Accurately ripped (confidence 2)  [6BF47B50]
     Copy OK

Track  5

     Filename F:\THE RIPPER\05. Viking Skull - Saddle Up.wav

     Pre-gap length  0:00:02.00

     Peak level 97.8 %
     Track quality 99.9 %
     Test CRC 4387BF97
     Copy CRC 4387BF97
     Accurately ripped (confidence 2)  [2F3B1EA5]
     Copy OK

Track  6

     Filename F:\THE RIPPER\06. Viking Skull - Seedealer.wav

     Pre-gap length  0:00:02.00

     Peak level 97.6 %
     Track quality 100.0 %
     Test CRC 8B6B87C5
     Copy CRC 8B6B87C5
     Accurately ripped (confidence 2)  [BB2714BD]
     Copy OK

Track  7

     Filename F:\THE RIPPER\07. Viking Skull - Beers Drugs and Bitches.wav

     Pre-gap length  0:00:02.00

     Peak level 96.2 %
     Track quality 100.0 %
     Test CRC F2026F46
     Copy CRC F2026F46
     Accurately ripped (confidence 2)  [C80DEF44]
     Copy OK

Track  8

     Filename F:\THE RIPPER\08. Viking Skull - Rock and Roll Suicide.wav

     Pre-gap length  0:00:02.00

     Peak level 98.1 %
     Track quality 100.0 %
     Test CRC DFE9EBA1
     Copy CRC DFE9EBA1
     Accurately ripped (confidence 2)  [B3D1BCF7]
     Copy OK

Track  9

     Filename F:\THE RIPPER\09. Viking Skull - Dirty Dirty Hole.wav

     Pre-gap length  0:00:02.00

     Peak level 96.7 %
     Track quality 100.0 %
     Test CRC 86DAE76C
     Copy CRC 86DAE76C
     Accurately ripped (confidence 2)  [19072435]
     Copy OK

Track 10

     Filename F:\THE RIPPER\10. Viking Skull - Inject My Woman (with love).wav

     Pre-gap length  0:00:02.00

     Peak level 97.0 %
     Track quality 100.0 %
     Test CRC 20FC20BA
     Copy CRC 20FC20BA
     Accurately ripped (confidence 2)  [E3829DCB]
     Copy OK

Track 11

     Filename F:\THE RIPPER\11. Viking Skull - You Can't Kill Rock and Roll.wav

     Pre-gap length  0:00:02.01

     Peak level 96.1 %
     Track quality 99.9 %
     Test CRC F6DC2C22
     Copy CRC F6DC2C22
     Accurately ripped (confidence 2)  [489E5C39]
     Copy OK


All tracks accurately ripped

No errors occurred

End of status report

CUE sheet | +
Code:
REM GENRE Metal
REM DATE 2005
REM DISCID 8608E20B
REM COMMENT "ExactAudioCopy v0.99pb5"
PERFORMER "Viking Skull"
TITLE "Born in Hell"
FILE "01. Viking Skull - Born in Hell.wav" WAVE
  TRACK 01 AUDIO
    TITLE "Born in Hell"
    PERFORMER "Viking Skull"
    INDEX 01 00:00:00
  TRACK 02 AUDIO
    TITLE "Crank the Volume"
    PERFORMER "Viking Skull"
    INDEX 00 02:47:61
FILE "02. Viking Skull - Crank the Volume.wav" WAVE
    INDEX 01 00:00:00
  TRACK 03 AUDIO
    TITLE "Red Hot Woman"
    PERFORMER "Viking Skull"
    INDEX 00 03:53:00
FILE "03. Viking Skull - Red Hot Woman.wav" WAVE
    INDEX 01 00:00:00
  TRACK 04 AUDIO
    TITLE "Frostbite"
    PERFORMER "Viking Skull"
    INDEX 00 03:16:26
FILE "04. Viking Skull - Frostbite.wav" WAVE
    INDEX 01 00:00:00
  TRACK 05 AUDIO
    TITLE "Saddle Up"
    PERFORMER "Viking Skull"
    INDEX 00 04:03:32
FILE "05. Viking Skull - Saddle Up.wav" WAVE
    INDEX 01 00:00:00
  TRACK 06 AUDIO
    TITLE "Seedealer"
    PERFORMER "Viking Skull"
    INDEX 00 02:54:74
FILE "06. Viking Skull - Seedealer.wav" WAVE
    INDEX 01 00:00:00
  TRACK 07 AUDIO
    TITLE "Beers Drugs and Bitches"
    PERFORMER "Viking Skull"
    INDEX 00 02:43:33
FILE "07. Viking Skull - Beers Drugs and Bitches.wav" WAVE
    INDEX 01 00:00:00
  TRACK 08 AUDIO
    TITLE "Rock and Roll Suicide"
    PERFORMER "Viking Skull"
    INDEX 00 05:16:20
FILE "08. Viking Skull - Rock and Roll Suicide.wav" WAVE
    INDEX 01 00:00:00
  TRACK 09 AUDIO
    TITLE "Dirty Dirty Hole"
    PERFORMER "Viking Skull"
    INDEX 00 02:54:08
FILE "09. Viking Skull - Dirty Dirty Hole.wav" WAVE
    INDEX 01 00:00:00
  TRACK 10 AUDIO
    TITLE "Inject My Woman (with love)"
    PERFORMER "Viking Skull"
    INDEX 00 03:04:61
FILE "10. Viking Skull - Inject My Woman (with love).wav" WAVE
    INDEX 01 00:00:00
  TRACK 11 AUDIO
    TITLE "You Can't Kill Rock and Roll"
    PERFORMER "Viking Skull"
    INDEX 00 03:11:46
FILE "11. Viking Skull - You Can't Kill Rock and Roll.wav" WAVE
    INDEX 01 00:00:00

Image

_________________
One more beer and Heavy Metal and I'm just fine!
старовер, куле... слово "блин" - до сих пор через Ъ говорю


Last edited by 32warlord1 on 20 Jun 2016, edited 1 time in total.

Top
 Profile E-mail  
 
 
PostPosted: 20 Jun 2016 
Partisanen - nicht kapitulieren!!
User avatar
Joined: 25 Dec 2011
Posts: 5582
Lоcаtion: партизанские леса
Age: 45
Name: Владимир
Viking Skull [2012] Cursed By The Sword [FLAC]
Transcend Music Group / TM0097

Image

01. Five Fingers of Steel 03:16
02. This Is the End 03:51
03. Cursed by the Sword 01:40
04. Fire 04:02
05. Pumped! 03:07
06. You Look Like I Need a Beer 03:32
07. Machine Gun Honey 04:26
08. My Bitch Talks Too Much 03:34
09. Second Left on Harris 03:17
10. Sleepwalk 07:13

CUE sheet | +
Code:
REM GENRE Metal
REM DATE 2012
REM DISCID 9708E90A
REM COMMENT "ExactAudioCopy v1.0b3"
CATALOG 5060243826893
PERFORMER "Viking Skull"
TITLE "Cursed By The Sword"
FILE "01 - Five Fingers Of Steel.wav" WAVE
  TRACK 01 AUDIO
    TITLE "Five Fingers Of Steel"
    PERFORMER "Viking Skull"
    INDEX 01 00:00:00
FILE "02 - This Is The End.wav" WAVE
  TRACK 02 AUDIO
    TITLE "This Is The End"
    PERFORMER "Viking Skull"
    INDEX 01 00:00:00
FILE "03 - Cursed By The Sword.wav" WAVE
  TRACK 03 AUDIO
    TITLE "Cursed By The Sword"
    PERFORMER "Viking Skull"
    INDEX 01 00:00:00
FILE "04 - Fire.wav" WAVE
  TRACK 04 AUDIO
    TITLE "Fire"
    PERFORMER "Viking Skull"
    INDEX 01 00:00:00
FILE "05 - Pumped!.wav" WAVE
  TRACK 05 AUDIO
    TITLE "Pumped!"
    PERFORMER "Viking Skull"
    INDEX 01 00:00:00
FILE "06 - You Look Like I Need A Beer.wav" WAVE
  TRACK 06 AUDIO
    TITLE "You Look Like I Need A Beer"
    PERFORMER "Viking Skull"
    INDEX 01 00:00:00
FILE "07 - Machine Gun Honey.wav" WAVE
  TRACK 07 AUDIO
    TITLE "Machine Gun Honey"
    PERFORMER "Viking Skull"
    INDEX 01 00:00:00
FILE "08 - My Bitch Talks Too Much.wav" WAVE
  TRACK 08 AUDIO
    TITLE "My Bitch Talks Too Much"
    PERFORMER "Viking Skull"
    INDEX 01 00:00:00
FILE "09 - Second Left On Harris.wav" WAVE
  TRACK 09 AUDIO
    TITLE "Second Left On Harris"
    PERFORMER "Viking Skull"
    INDEX 01 00:00:00
FILE "10 - Sleepwalk.wav" WAVE
  TRACK 10 AUDIO
    TITLE "Sleepwalk"
    PERFORMER "Viking Skull"
    INDEX 01 00:00:00

AUDIOCHECKER log | +
Code:
AUDIOCHECKER v2.0 beta (build 457) - by Dester - opdester@freemail.hu
~~~~~~~~~~~~~~~~~~~~~~~~~~~~~~~~~~
-=== DO NOT EDIT THIS FILE! ===-

Path: ...\Viking Skull - Cursed By The Sword (2012) [FLAC]

01 -=- 01 - Five Fingers Of Steel.flac -=- CDDA (100%)
02 -=- 02 - This Is The End.flac -=- CDDA (100%)
03 -=- 03 - Cursed By The Sword.flac -=- CDDA (100%)
04 -=- 04 - Fire.flac -=- CDDA (100%)
05 -=- 05 - Pumped!.flac -=- CDDA (100%)
06 -=- 06 - You Look Like I Need A Beer.flac -=- CDDA (100%)
07 -=- 07 - Machine Gun Honey.flac -=- CDDA (100%)
08 -=- 08 - My Bitch Talks Too Much.flac -=- CDDA (99%)
09 -=- 09 - Second Left On Harris.flac -=- CDDA (100%)
10 -=- 10 - Sleepwalk.flac -=- CDDA (99%)

Summary 99.80% CDDA

29987204


Image

_________________
One more beer and Heavy Metal and I'm just fine!
старовер, куле... слово "блин" - до сих пор через Ъ говорю


Top
 Profile E-mail  
 
 
PostPosted: 20 Jun 2016 
Alive Again
User avatar
Joined: 17 Dec 2008
Posts: 4424
Lоcаtion: Курск Воронеж Оскол
Age: 43
Name: Дмитрий
Ага, забираю! Большое :thanx: Вов!
Думаю и другим пригодится, группа то ого-го! :lob:


Top
 Profile E-mail  
 
 
PostPosted: 21 Jun 2016 
Хиппей (support team)
User avatar
Joined: 30 Jul 2007
Posts: 94467
Lоcаtion: Киев (Kyiv, UA)
Age: 44
Name: Andrey
:thanx:

_________________


Top
 Profile E-mail  
 
Display posts from previous:  Sort by  
Post new topic Reply to topic  [ 4 posts ] 

All times are UTC + 3 hours


Who is online

Users browsing this forum: No registered users and 1 guest


You cannot post new topics in this forum
You cannot reply to topics in this forum
You cannot edit your posts in this forum
You cannot delete your posts in this forum
You cannot post attachments in this forum

Search for:
Яндекс.Метрика
Powered by phpBB © 2000, 2002, 2005, 2007 phpBB Group