\m/ 80's metal \m/

Информационно-аналитический форум "80 см пыли" (In Search We Trust) "У нас никто никуда не спешит"
Железнодорожная биржа - RailAgent
It is currently 20 Aug 2017

All times are UTC + 3 hours

Spoiler
Chat - temporary registration for foreign users (please leave your application here)







Post new topic Reply to topic  [ 14 posts ] 
Author Message
 
PostPosted: 23 Feb 2016 
5-speed satisfactor
User avatar
Joined: 16 Feb 2009
Posts: 3271
Lоcаtion: New York, USA
Age: 39
Name: Leonid
Image

    1. Tribes - 03:45
    2. Even in Heaven - 03:57
    3. Trinity MCMXLV 0530 - 03:33
    4. In Memory Of (Paul Miller 1964-90) - 04:17
    5. Faerie Tale - 04:21
    6. Playtime - 03:18
    7. Acid - 04:13
    8. Arachnid - 02:42
    9. Speed King (Deep Purple cover) - 03:33
    10. Temples of Ice - 06:44

    TPT: 40:23

Дооформите?

Неделя у вас.

http://we.tl/ob0hYxnDaU

log
Exact Audio Copy V0.99 prebeta 5 from 4. May 2009

EAC extraction logfile from 21. October 2011, 12:53

Venom / Temples Of Ice

Used drive : PLEXTOR DVDR PX-760A Adapter: 1 ID: 0

Read mode : Secure
Utilize accurate stream : Yes
Defeat audio cache : Yes
Make use of C2 pointers : Yes

Read offset correction : 30
Overread into Lead-In and Lead-Out : Yes
Fill up missing offset samples with silence : Yes
Delete leading and trailing silent blocks : No
Null samples used in CRC calculations : Yes
Used interface : Installed external ASPI interface

Used output format : Internal WAV Routines
Sample format : 44.100 Hz; 16 Bit; Stereo


TOC of the extracted CD

Track | Start | Length | Start sector | End sector
---------------------------------------------------------
1 | 0:00.33 | 3:45.42 | 33 | 16949
2 | 3:46.00 | 3:57.08 | 16950 | 34732
3 | 7:43.08 | 3:33.62 | 34733 | 50769
4 | 11:16.70 | 4:17.23 | 50770 | 70067
5 | 15:34.18 | 4:21.30 | 70068 | 89672
6 | 19:55.48 | 3:18.55 | 89673 | 104577
7 | 23:14.28 | 4:13.30 | 104578 | 123582
8 | 27:27.58 | 2:42.25 | 123583 | 135757
9 | 30:10.08 | 3:33.02 | 135758 | 151734
10 | 33:43.10 | 6:44.23 | 151735 | 182057


Range status and errors

Selected range

Filename O:\ToFlac\Venom\Temples Of Ice\Venom - Temples Of Ice.wav

Peak level 99.5 %
Range quality 99.9 %
Copy CRC 1CB2922E
Copy OK

No errors occurred

End of status report

cue
REM GENRE "Thrash Metal"
REM DATE 1991
REM DISCID 92097B0A
REM COMMENT "ExactAudioCopy v0.99pb5"
CATALOG 0000000000000
PERFORMER "Venom"
TITLE "Temples Of Ice"
FILE "Venom - Temples Of Ice.wav" WAVE
TRACK 01 AUDIO
TITLE "Tribes"
PERFORMER "Venom"
INDEX 00 00:00:00
INDEX 01 00:00:33
TRACK 02 AUDIO
TITLE "Even In Heaven"
PERFORMER "Venom"
INDEX 00 03:45:00
INDEX 01 03:46:00
TRACK 03 AUDIO
TITLE "Trinity MCMXLV"
PERFORMER "Venom"
INDEX 00 07:43:05
INDEX 01 07:43:08
TRACK 04 AUDIO
TITLE "In Memory Of (Paul Miller 1964-90)"
PERFORMER "Venom"
INDEX 00 11:16:68
INDEX 01 11:16:70
TRACK 05 AUDIO
TITLE "Faerie Tale"
PERFORMER "Venom"
INDEX 00 15:34:15
INDEX 01 15:34:18
TRACK 06 AUDIO
TITLE "Playtime"
PERFORMER "Venom"
INDEX 00 19:55:45
INDEX 01 19:55:48
TRACK 07 AUDIO
TITLE "Acid"
PERFORMER "Venom"
INDEX 00 23:14:25
INDEX 01 23:14:28
TRACK 08 AUDIO
TITLE "Arachnid"
PERFORMER "Venom"
INDEX 00 27:27:55
INDEX 01 27:27:58
TRACK 09 AUDIO
TITLE "Speed King"
PERFORMER "Venom"
INDEX 00 30:10:05
INDEX 01 30:10:08
TRACK 10 AUDIO
TITLE "Temples Of Ice"
PERFORMER "Venom"
INDEX 00 33:41:60
INDEX 01 33:43:10


Image Image

_________________
Death rules! Metal to all who oppose!


Last edited by Scatterbrain on 24 Feb 2016, edited 1 time in total.
Малость дооформлено. Ссылки живые чуть ниже


Top
 Profile  
 
 
PostPosted: 24 Feb 2016 
Хиппей (support team)
User avatar
Joined: 30 Jul 2007
Posts: 92285
Lоcаtion: Киев (Kyiv, UA)
Age: 44
Name: Andrey
:thanx:

mirror: iFolder l Narod l M-Cloud

_________________


Top
 Profile E-mail  
 
 
PostPosted: 24 Feb 2016 
Хиппей (support team)
User avatar
Joined: 30 Jul 2007
Posts: 92285
Lоcаtion: Киев (Kyiv, UA)
Age: 44
Name: Andrey
Ой, какой охренезный активный ракиндрольный альбом я чуть не пропустил ваще :lob: :lob: :lob:
А то до этого момента слушал только у группы ранние работы и "Кэст ин Стон", который как-то купил на диске.

6+/10

_________________


Top
 Profile E-mail  
 
 
PostPosted: 24 Feb 2016 
спирт 100%
User avatar
Joined: 22 Sep 2008
Posts: 4093
Age: 46
Name: Саня
:thanx: Спасибо!


Top
 Profile  
 
 
PostPosted: 24 Feb 2016 
Доктор энтомологии
User avatar
Joined: 22 Jan 2009
Posts: 7872
Lоcаtion: Даугавпилс
Age: 42
Name: Алексей
Хороший альбом. Мой любимый у группы в 90х :thanx:


Top
 Profile  
 
 
PostPosted: 24 Feb 2016 
А может смените мне статус?..
User avatar
Joined: 24 Dec 2008
Posts: 541
Age: 43
Name: Дмитрий
Спасибо, попробую послушать...


Top
 Profile  
 
 
PostPosted: 24 Feb 2016 
5-speed satisfactor
User avatar
Joined: 16 Feb 2009
Posts: 3271
Lоcаtion: New York, USA
Age: 39
Name: Leonid
Говорят, он лучший среди Долановских. Но лично мне он не очень. Мне The Waste Lands больше ндравится.

_________________
Death rules! Metal to all who oppose!


Top
 Profile  
 
 
PostPosted: 24 Feb 2016 
Хиппей (support team)
User avatar
Joined: 30 Jul 2007
Posts: 92285
Lоcаtion: Киев (Kyiv, UA)
Age: 44
Name: Andrey
metaleonid wrote:
Говорят, он лучший среди Долановских.

Ээмм.. это вокалист?
Хорош, хорооооооооош, засранец :kro:

_________________


Top
 Profile E-mail  
 
 
PostPosted: 25 Feb 2016 
5-speed satisfactor
User avatar
Joined: 16 Feb 2009
Posts: 3271
Lоcаtion: New York, USA
Age: 39
Name: Leonid
Да, да он. Он ещё в фильме "Хозяин морей: на краю земли" 2003го года плотника играет.

_________________
Death rules! Metal to all who oppose!


Top
 Profile  
 
 
PostPosted: 25 Feb 2016 
Хиппей (support team)
User avatar
Joined: 30 Jul 2007
Posts: 92285
Lоcаtion: Киев (Kyiv, UA)
Age: 44
Name: Andrey
metaleonid wrote:
плотника играет.

Ну, насколько понимаю, халтуркой тоже не гнушится :paid:

_________________


Top
 Profile E-mail  
 
 
PostPosted: 25 Feb 2016 
5-speed satisfactor
User avatar
Joined: 16 Feb 2009
Posts: 3271
Lоcаtion: New York, USA
Age: 39
Name: Leonid
:shok: халтурка. 150 миллионный фильм.

_________________
Death rules! Metal to all who oppose!


Top
 Profile  
 
 
PostPosted: 25 Feb 2016 
Хиппей (support team)
User avatar
Joined: 30 Jul 2007
Posts: 92285
Lоcаtion: Киев (Kyiv, UA)
Age: 44
Name: Andrey
:shok: халтурка. 150 миллионный фильм.

Ой, так шо ж ты так поздно то сказал? Я б тоже сыграл бы кого-то :begun:

_________________


Top
 Profile E-mail  
 
 
PostPosted: 25 Feb 2016 
5-speed satisfactor
User avatar
Joined: 16 Feb 2009
Posts: 3271
Lоcаtion: New York, USA
Age: 39
Name: Leonid
Дык, что ж ты так поздно спросил?

_________________
Death rules! Metal to all who oppose!


Top
 Profile  
 
 
PostPosted: 25 Feb 2016 
Хиппей (support team)
User avatar
Joined: 30 Jul 2007
Posts: 92285
Lоcаtion: Киев (Kyiv, UA)
Age: 44
Name: Andrey
Ну так я раньше и Веном не так часто слушал и в кино снимался только на студии им. А. Довженко :kro:

_________________


Top
 Profile E-mail  
 
Display posts from previous:  Sort by  
Post new topic Reply to topic  [ 14 posts ] 

All times are UTC + 3 hours


Who is online

Users browsing this forum: No registered users and 1 guest


You cannot post new topics in this forum
You cannot reply to topics in this forum
You cannot edit your posts in this forum
You cannot delete your posts in this forum
You cannot post attachments in this forum

Search for:
Яндекс.Метрика
Powered by phpBB © 2000, 2002, 2005, 2007 phpBB Group