\m/ 80's metal \m/

Информационно-аналитический форум "80 см пыли" (In Search We Trust) "У нас никто никуда не спешит"
Железнодорожная биржа - RailAgent
It is currently 22 Aug 2017

All times are UTC + 3 hours

Spoiler
Chat - temporary registration for foreign users (please leave your application here)







Post new topic Reply to topic  [ 9 posts ] 
Author Message
 
PostPosted: 23 Feb 2016 
5-speed satisfactor
User avatar
Joined: 16 Feb 2009
Posts: 3271
Lоcаtion: New York, USA
Age: 39
Name: Leonid
Image

Это не сборник. Это номерной альбом 93его года, где Тони Долан перепевает старые треки Кроноса.

Чтоб восстановить образ, нужно отпилить 11760 семплов от начала первого трека и склеить треки.

1. Black Metal - 03:04
2. Die Hard - 02:54
3. Flatline (previously unreleased) - 04:10
4. Welcome To Hell - 02:41
5. In Nomine Satanas - 03:40
6. Witching Hour - 03:34
7. Angel Dust - 02:36
8. Fragile Life (previously unreleased) - 03:34
9. Bloodlust - 02:51
10. Countess Bathory - 04:31
11. Buried Alive (live) - 03:39
12. Bursting Out (live) - 02:56

Неделя:

http://we.tl/yEE7Jp7UhC

Image

Image

Image

log
Exact Audio Copy V0.99 prebeta 5 from 4. May 2009

EAC extraction logfile from 21. October 2011, 9:26

Venom / Kissing The Beast

Used drive : PLEXTOR DVDR PX-760A Adapter: 1 ID: 0

Read mode : Secure
Utilize accurate stream : Yes
Defeat audio cache : Yes
Make use of C2 pointers : Yes

Read offset correction : 30
Overread into Lead-In and Lead-Out : Yes
Fill up missing offset samples with silence : Yes
Delete leading and trailing silent blocks : No
Null samples used in CRC calculations : Yes
Used interface : Installed external ASPI interface

Used output format : Internal WAV Routines
Sample format : 44.100 Hz; 16 Bit; Stereo


TOC of the extracted CD

Track | Start | Length | Start sector | End sector
---------------------------------------------------------
1 | 0:00.00 | 3:04.25 | 0 | 13824
2 | 3:04.25 | 2:53.67 | 13825 | 26866
3 | 5:58.17 | 4:10.70 | 26867 | 45686
4 | 10:09.12 | 2:40.60 | 45687 | 57746
5 | 12:49.72 | 3:40.05 | 57747 | 74251
6 | 16:30.02 | 3:34.23 | 74252 | 90324
7 | 20:04.25 | 2:36.05 | 90325 | 102029
8 | 22:40.30 | 3:34.20 | 102030 | 118099
9 | 26:14.50 | 2:51.05 | 118100 | 130929
10 | 29:05.55 | 4:31.32 | 130930 | 151286
11 | 33:37.12 | 3:39.03 | 151287 | 167714
12 | 37:16.15 | 2:55.42 | 167715 | 180881


Range status and errors

Selected range

Filename O:\ToFlac\Venom\Kissing The Beast\Venom - Kissing The Beast.wav

Peak level 98.0 %
Range quality 100.0 %
Copy CRC 9DE4C782
Copy OK

No errors occurred

End of status report

cue
REM GENRE "Thrash Metal"
REM DATE 1993
REM DISCID 9B096B0C
REM COMMENT "Added 20 extra frames to the beginning. To burn set offset to -11760+driveOffset. I.e. if drive offset is +30, set to -11730."
REM COMMENT "ExactAudioCopy v0.99pb5"
CATALOG 0000000000000
PERFORMER "Venom"
TITLE "Kissing The Beast"
FILE "Venom - Kissing The Beast.wav" WAVE
TRACK 01 AUDIO
TITLE "Black Metal"
PERFORMER "Venom"
INDEX 01 00:00:00
TRACK 02 AUDIO
TITLE "Die Hard"
PERFORMER "Venom"
INDEX 00 03:03:32
INDEX 01 03:04:25
TRACK 03 AUDIO
TITLE "Flatline"
PERFORMER "Venom"
INDEX 00 05:57:10
INDEX 01 05:58:17
TRACK 04 AUDIO
TITLE "Welcome To Hell"
PERFORMER "Venom"
INDEX 00 10:06:25
INDEX 01 10:09:12
TRACK 05 AUDIO
TITLE "In Nomine Satanas"
PERFORMER "Venom"
INDEX 00 12:49:45
INDEX 01 12:49:72
TRACK 06 AUDIO
TITLE "Witching Hour"
PERFORMER "Venom"
INDEX 00 16:29:42
INDEX 01 16:30:02
TRACK 07 AUDIO
TITLE "Angel Dust"
PERFORMER "Venom"
INDEX 00 20:03:42
INDEX 01 20:04:25
TRACK 08 AUDIO
TITLE "Fragile Life"
PERFORMER "Venom"
INDEX 00 22:39:62
INDEX 01 22:40:30
TRACK 09 AUDIO
TITLE "Bloodlust"
PERFORMER "Venom"
INDEX 00 26:11:72
INDEX 01 26:14:50
TRACK 10 AUDIO
TITLE "Countess Bathory"
PERFORMER "Venom"
INDEX 01 29:05:55
TRACK 11 AUDIO
TITLE "Buried Alive (live)"
PERFORMER "Venom"
INDEX 01 33:37:12
TRACK 12 AUDIO
TITLE "Bursting Out (live)"
PERFORMER "Venom"
INDEX 00 37:13:32
INDEX 01 37:16:15

_________________
Death rules! Metal to all who oppose!


Top
 Profile  
 
 
PostPosted: 23 Feb 2016 
Хиппей (support team)
User avatar
Joined: 30 Jul 2007
Posts: 92355
Lоcаtion: Киев (Kyiv, UA)
Age: 44
Name: Andrey
:thanx:

mirror: iFolder l Narod l M-Cloud

_________________


Top
 Profile E-mail  
 
 
PostPosted: 23 Feb 2016 
Хиппей (support team)
User avatar
Joined: 30 Jul 2007
Posts: 92355
Lоcаtion: Киев (Kyiv, UA)
Age: 44
Name: Andrey
metaleonid wrote:
Чтоб восстановить образ, нужно отпилить 11760 семплов от начала первого трека и склеить треки.

Нинашол чивота пилочки и изоленты в архиве :vic:

_________________


Top
 Profile E-mail  
 
 
PostPosted: 23 Feb 2016 
спирт 100%
User avatar
Joined: 22 Sep 2008
Posts: 4094
Age: 46
Name: Саня
:thanx:


Top
 Profile  
 
 
PostPosted: 23 Feb 2016 
10cm
User avatar
Joined: 27 Mar 2013
Posts: 78
Name: Alexander
:thanx:

_________________
Ищу постеры Destruction 1987-1988 гг. :arrow: viewtopic.php?f=67&t=13346


Top
 Profile  
 
 
PostPosted: 27 Feb 2016 
Хиппей (support team)
User avatar
Joined: 30 Jul 2007
Posts: 92355
Lоcаtion: Киев (Kyiv, UA)
Age: 44
Name: Andrey
Понравился сборничег :meloman:

_________________


Top
 Profile E-mail  
 
 
PostPosted: 27 Feb 2016 
Хиппей (support team)
User avatar
Joined: 30 Jul 2007
Posts: 92355
Lоcаtion: Киев (Kyiv, UA)
Age: 44
Name: Andrey
metaleonid wrote:
Это не сборник. Это номерной альбом 93его года, где Тони Долан перепевает старые треки Кроноса.

Дык, всё равно это по факту сборник старых песен, только перепетых :pardon:

_________________


Top
 Profile E-mail  
 
 
PostPosted: 27 Feb 2016 
Рарник и трушник
User avatar
Joined: 25 Dec 2009
Posts: 6466
Lоcаtion: Москва
Age: 52
Name: Виталий
Scatterbrain wrote:
Дык, всё равно это по факту сборник старых песен, только перепетых :pardon:


Неа. :vic:

Лёнь, спасибо! :thanx: Я раньше не слышал кстати. :pardon:


Top
 Profile  
 
 
PostPosted: 27 Feb 2016 
Персональный статус
Joined: 05 Feb 2011
Posts: 302
Lоcаtion: Russia, Novosibirsk
Age: 43
Name: Андрей
Venom's first show promoting 'The Waste Lands' was on a festival billing at the Winter Palace in St. Petersburg, Russia ranked alongside UFO, Magnum, Sweet, Girlschool and Asia. The success of this event, televised to over four million Russians, prompted a request for the new line-up to record classic tracks for a special Russian release. The group duly laid these tracks down but no release was forthcoming. The songs later re-surfaced on the 'Kissing The Beast' collection.


Top
 Profile E-mail  
 
Display posts from previous:  Sort by  
Post new topic Reply to topic  [ 9 posts ] 

All times are UTC + 3 hours


Who is online

Users browsing this forum: No registered users and 1 guest


You cannot post new topics in this forum
You cannot reply to topics in this forum
You cannot edit your posts in this forum
You cannot delete your posts in this forum
You cannot post attachments in this forum

Search for:
Яндекс.Метрика
Powered by phpBB © 2000, 2002, 2005, 2007 phpBB Group