\m/ 80's metal \m/

Информационно-аналитический форум "80 см пыли" (In Search We Trust) "У нас никто никуда не спешит"
Железнодорожная биржа - RailAgent
It is currently 24 Sep 2017

All times are UTC + 3 hours

Spoiler
Chat - temporary registration for foreign users (please leave your application here)







Post new topic Reply to topic  [ 2 posts ] 
Author Message
 
PostPosted: 01 Jul 2015 
Генеральный thrasher
User avatar
Joined: 03 Oct 2008
Posts: 3148
Lоcаtion: Ханты-Мансийский АО
Age: 42
Name: Сергей
Image

Year:2011
Style:Death/Thrash Metal
Country:Brazil
Audio:Flac+Cue+Log+Scans
Size:322Mb
Source:my CD
Label:Renegados Records
Catalog ID:ENC 102

Line-Up:
Zhema Rodero - guitars,bass
Arthur Von Barbarian - drums
Luiz Carlos Louzada - vocals

Tracklist:
01. Awash in Blood 03:27
02. Devil's Forces 02:22
03. Total Desolation 03:20
04. Prison in the Hexagon 03:39
05. 100 & 50 03:28
06. Zodiac Attack 04:13
07. They Sold Their Souls 02:24
08. Chapel on Fire 03:37
09. Come to the Carnage 02:37
10. Infamous Poet 04:53
11. The Evil Always Returns 04:10

"Cue"
REM GENRE "Death/Thrash Metal"
REM DATE 2011
REM DISCID 9308F80B
REM COMMENT "ExactAudioCopy v0.99pb5"
PERFORMER "Vulcano"
TITLE "Drowning In Blood"
FILE "Vulcano - Drowning In Blood.flac" WAVE
TRACK 01 AUDIO
TITLE "Awash in Blood"
PERFORMER "Vulcano"
INDEX 01 00:00:00
TRACK 02 AUDIO
TITLE "Devil's Forces"
PERFORMER "Vulcano"
INDEX 01 03:27:63
TRACK 03 AUDIO
TITLE "Total Desolation"
PERFORMER "Vulcano"
INDEX 01 05:49:70
TRACK 04 AUDIO
TITLE "Prison in the Hexagon"
PERFORMER "Vulcano"
INDEX 01 09:10:15
TRACK 05 AUDIO
TITLE "100 & 50"
PERFORMER "Vulcano"
INDEX 01 12:50:00
TRACK 06 AUDIO
TITLE "Zodiac Attack"
PERFORMER "Vulcano"
INDEX 01 16:18:68
TRACK 07 AUDIO
TITLE "They Sold Their Souls"
PERFORMER "Vulcano"
INDEX 01 20:32:38
TRACK 08 AUDIO
TITLE "Chapel on Fire"
PERFORMER "Vulcano"
INDEX 01 22:57:09
TRACK 09 AUDIO
TITLE "Come to the Carnage"
PERFORMER "Vulcano"
INDEX 01 26:34:09
TRACK 10 AUDIO
TITLE "Infamous Poet"
PERFORMER "Vulcano"
INDEX 01 29:11:54
TRACK 11 AUDIO
TITLE "The Evil Always Returns"
PERFORMER "Vulcano"
INDEX 01 34:05:43

"Log"
Exact Audio Copy V0.99 prebeta 5 from 4. May 2009

Отчёт EAC об извлечении, выполненном 24. июня 2015, 15:21

Vulcano / Drowning In Blood

Дисковод: MATSHITADVD-RAM UJ8A0AS Adapter: 0 ID: 1

Режим чтения : Достоверность
Использование точного потока : Да
Отключение кэша аудио : Да
Использование указателей C2 : Нет

Коррекция смещения при чтении : 102
Способность читать области Lead-in и Lead-out : Нет
Заполнение пропущенных сэмплов тишиной : Да
Удаление блоков с тишиной в начале и конце : Нет
При вычислениях CRC использовались нулевые сэмплы : Да
Интерфейс : Встроенный Win32-интерфейс для Win NT/2000

Выходной формат : Пользовательский кодировщик
Выбранный битрейт : 1024 kBit/s
Качество : Высокий
Добавление ID3-тэга : Нет
Утилита сжатия : C:\Program Files\Exact Audio Copy\FLAC\FLAC.EXE
Дополнительные параметры : -6 -V -T "ARTIST=%a" -T "TITLE=%t" -T "ALBUM=%g" -T "DATE=%y" -T "TRACKNUMBER=%n" -T "GENRE=%m" -T "COMMENT=%e" %s -o %d


TOC извлечённого CD

Трек | Старт | Длительность | Начальный сектор | Конечный сектор
---------------------------------------------------------------------
1 | 0:00.00 | 3:27.63 | 0 | 15587
2 | 3:27.63 | 2:22.07 | 15588 | 26244
3 | 5:49.70 | 3:20.20 | 26245 | 41264
4 | 9:10.15 | 3:39.60 | 41265 | 57749
5 | 12:50.00 | 3:28.68 | 57750 | 73417
6 | 16:18.68 | 4:13.45 | 73418 | 92437
7 | 20:32.38 | 2:24.46 | 92438 | 103283
8 | 22:57.09 | 3:37.00 | 103284 | 119558
9 | 26:34.09 | 2:37.45 | 119559 | 131378
10 | 29:11.54 | 4:53.64 | 131379 | 153417
11 | 34:05.43 | 4:10.45 | 153418 | 172212


Характеристики диапазона извлечения и сообщения об ошибках

Выбранный диапазон

Имя файла C:\Users\эксперт\Music\Vulcano - Drowning In Blood.wav

Пиковый уровень 99.8 %
Качество диапазона 100.0 %
CRC копии E22D72E3
Копирование... OK

Ошибок не произошло


AccurateRip: сводка

Трек 1 нет в базе данных
Трек 2 нет в базе данных
Трек 3 нет в базе данных
Трек 4 нет в базе данных
Трек 5 нет в базе данных
Трек 6 нет в базе данных
Трек 7 нет в базе данных
Трек 8 нет в базе данных
Трек 9 нет в базе данных
Трек 10 нет в базе данных
Трек 11 нет в базе данных

Ни одного трека нет в базе AccurateRip

Конец отчёта


Drowning In Blood


Top
 Profile  
 
 
PostPosted: 04 Jul 2015 
ТрэшЭрос
User avatar
Joined: 18 Jul 2011
Posts: 2292
Lоcаtion: Гулькевичи
Age: 42
Name: Александр
:thanx:

_________________
Thrash no trash!!!


Top
 Profile E-mail  
 
Display posts from previous:  Sort by  
Post new topic Reply to topic  [ 2 posts ] 

All times are UTC + 3 hours


Who is online

Users browsing this forum: No registered users and 1 guest


You cannot post new topics in this forum
You cannot reply to topics in this forum
You cannot edit your posts in this forum
You cannot delete your posts in this forum
You cannot post attachments in this forum

Search for:
Яндекс.Метрика
Powered by phpBB © 2000, 2002, 2005, 2007 phpBB Group