\m/ 80's metal \m/

Информационно-аналитический форум "80 см пыли" (In Search We Trust) "У нас никто никуда не спешит"
Железнодорожная биржа - RailAgent
It is currently 23 Sep 2017

All times are UTC + 3 hours

Spoiler
Chat - temporary registration for foreign users (please leave your application here)







Post new topic Reply to topic  [ 3 posts ] 
Author Message
 
PostPosted: 09 Mar 2015 
Генеральный thrasher
User avatar
Joined: 03 Oct 2008
Posts: 3143
Lоcаtion: Ханты-Мансийский АО
Age: 42
Name: Сергей
Image

Year:2013
Style:Death/Thrash Metal
Country:Brazil
Audio:Flac Tracks+Cue+m3u+Scans
Size:266Mb
Source:foreign tracker
Label:Renegados Records

Line-Up:
Luiz Carlos Louzada - vocals
Zhema Rodero - guitars
Fernando Nonath - guitars
Carlos Diaz - bass
Arthur Von Barbarian - drums

Tracklist:
01. Annihilate All Of Them
02. No Mercy For Fucking Traitors
03. Church At A Crossroad
04. You Have Been Warned
05. Blood And Champagne
06. The Man, The Key, The Beast
07. Dead Water
08. The Wizard
09. The Devil Escaped From The Earth
10. Compulsive Gambler
11. In The Silence Of The Grave

"Log"
Exact Audio Copy V1.0 beta 4 from 7. December 2014

EAC extraction logfile from 28. February 2015, 23:51

Vulcano / The Man The Key The Beast

Used drive : ATAPI DVD A DH20A4P Adapter: 1 ID: 0

Read mode : Secure
Utilize accurate stream : Yes
Defeat audio cache : Yes
Make use of C2 pointers : No

Read offset correction : 6
Overread into Lead-In and Lead-Out : No
Fill up missing offset samples with silence : Yes
Delete leading and trailing silent blocks : No
Null samples used in CRC calculations : Yes
Used interface : Native Win32 interface for Win NT & 2000
Gap handling : Appended to previous track

Used output format : User Defined Encoder
Selected bitrate : 128 kBit/s
Quality : High
Add ID3 tag : Yes
Command line compressor : C:\Program Files\Exact Audio Copy\Flac\flac.exe
Additional command line options : -T "artist=%artist%" -T "title=%title%" -T "album=%albumtitle%" -T "date=%year%" -T "tracknumber=%tracknr%" -T "genre=%genre%" -5 %source%


TOC of the extracted CD

Track | Start | Length | Start sector | End sector
---------------------------------------------------------
1 | 0:00.00 | 3:42.69 | 0 | 16718
2 | 3:42.69 | 3:39.39 | 16719 | 33182
3 | 7:22.33 | 2:03.30 | 33183 | 42437
4 | 9:25.63 | 3:27.37 | 42438 | 57999
5 | 12:53.25 | 3:09.29 | 58000 | 72203
6 | 16:02.54 | 2:24.57 | 72204 | 83060
7 | 18:27.36 | 2:34.20 | 83061 | 94630
8 | 21:01.56 | 3:02.67 | 94631 | 108347
9 | 24:04.48 | 2:36.60 | 108348 | 120107
10 | 26:41.33 | 2:50.31 | 120108 | 132888
11 | 29:31.64 | 3:51.59 | 132889 | 150272


Track 1

Filename E:\Vulcano\01 Aninhilate All Of Them.wav

Pre-gap length 0:00:02.00

Peak level 98.8 %
Extraction speed 1.8 X
Track quality 100.0 %
Test CRC 32D82E3E
Copy CRC 32D82E3E
Copy OK

Track 2

Filename E:\Vulcano\02 No Mercy For Fucking Traitors.wav

Pre-gap length 0:00:02.00

Peak level 98.8 %
Extraction speed 2.0 X
Track quality 100.0 %
Test CRC 04AF927E
Copy CRC 04AF927E
Copy OK

Track 3

Filename E:\Vulcano\03 Church At A Crossroad.wav

Pre-gap length 0:00:02.00

Peak level 98.8 %
Extraction speed 2.0 X
Track quality 100.0 %
Test CRC A3F71652
Copy CRC A3F71652
Copy OK

Track 4

Filename E:\Vulcano\04 You Have Been Warned.wav

Pre-gap length 0:00:02.00

Peak level 98.8 %
Extraction speed 1.9 X
Track quality 99.9 %
Test CRC 89B98459
Copy CRC 89B98459
Copy OK

Track 5

Filename E:\Vulcano\05 Blood And Champagne.wav

Pre-gap length 0:00:02.00

Peak level 98.8 %
Extraction speed 2.4 X
Track quality 100.0 %
Test CRC 84A843D2
Copy CRC 84A843D2
Copy OK

Track 6

Filename E:\Vulcano\06 The Man The Key The Beast.wav

Pre-gap length 0:00:02.00

Peak level 98.8 %
Extraction speed 1.8 X
Track quality 99.9 %
Test CRC EEF10043
Copy CRC EEF10043
Copy OK

Track 7

Filename E:\Vulcano\07 Dead Water.wav

Pre-gap length 0:00:02.00

Peak level 98.8 %
Extraction speed 2.4 X
Track quality 100.0 %
Test CRC 2A9B8F16
Copy CRC 2A9B8F16
Copy OK

Track 8

Filename E:\Vulcano\08 The Wizard.wav

Pre-gap length 0:00:02.00

Peak level 98.8 %
Extraction speed 2.1 X
Track quality 99.9 %
Test CRC 5ED95D08
Copy CRC 5ED95D08
Copy OK

Track 9

Filename E:\Vulcano\09 The Devil Escaped From The Earth.wav

Pre-gap length 0:00:02.00

Peak level 98.8 %
Extraction speed 2.6 X
Track quality 100.0 %
Test CRC 377DDB3C
Copy CRC 377DDB3C
Copy OK

Track 10

Filename E:\Vulcano\10 Compulsive Gambler.wav

Pre-gap length 0:00:02.00

Peak level 98.8 %
Extraction speed 2.8 X
Track quality 100.0 %
Test CRC 018CE515
Copy CRC 018CE515
Copy OK

Track 11

Filename E:\Vulcano\11 In The Silence Of The Grave.wav

Pre-gap length 0:00:02.00

Peak level 98.8 %
Extraction speed 3.0 X
Track quality 100.0 %
Test CRC E8EE9F5F
Copy CRC E8EE9F5F
Copy OK

No errors occurred

End of status report

---- CUETools DB Plugin V2.1.4

[CTDB TOCID: LG9fxbKFt9DQpKJyn7iiA.IloCI-] found
Submit result: already submitted
Track | CTDB Status
1 | (2/2) Accurately ripped
2 | (2/2) Accurately ripped
3 | (2/2) Accurately ripped
4 | (2/2) Accurately ripped
5 | (2/2) Accurately ripped
6 | (2/2) Accurately ripped
7 | (2/2) Accurately ripped
8 | (2/2) Accurately ripped
9 | (2/2) Accurately ripped
10 | (2/2) Accurately ripped
11 | (2/2) Accurately ripped


==== Log checksum 933C94F37DEE0B949A712A1BAF21682F0A60091A40095A9306B5C8F03A0AACE8 ====


The Man The Key The Beast


Top
 Profile  
 
 
PostPosted: 18 Mar 2015 
Alive Again
User avatar
Joined: 17 Dec 2008
Posts: 4386
Lоcаtion: Курск Воронеж Оскол
Age: 43
Name: Дмитрий
:thanx:


Top
 Profile E-mail  
 
 
PostPosted: 12 May 2015 
ТрэшЭрос
User avatar
Joined: 18 Jul 2011
Posts: 2292
Lоcаtion: Гулькевичи
Age: 42
Name: Александр
:thanx:
Особенно по душе тцакающие и звенящие тарелочки :true:

_________________
Thrash no trash!!!


Top
 Profile E-mail  
 
Display posts from previous:  Sort by  
Post new topic Reply to topic  [ 3 posts ] 

All times are UTC + 3 hours


Who is online

Users browsing this forum: No registered users and 1 guest


You cannot post new topics in this forum
You cannot reply to topics in this forum
You cannot edit your posts in this forum
You cannot delete your posts in this forum
You cannot post attachments in this forum

Search for:
Яндекс.Метрика
Powered by phpBB © 2000, 2002, 2005, 2007 phpBB Group