\m/ 80's metal \m/

Информационно-аналитический форум "80 см пыли" (In Search We Trust) "У нас никто никуда не спешит"
Железнодорожная биржа - RailAgent
It is currently 13 Dec 2017

All times are UTC + 3 hours

Spoiler
Chat - temporary registration for foreign users (please leave your application here)







Post new topic Reply to topic  [ 4 posts ] 
Author Message
 
PostPosted: 09 Mar 2015 
Генеральный thrasher
User avatar
Joined: 03 Oct 2008
Posts: 3255
Lоcаtion: Ханты-Мансийский АО
Age: 42
Name: Сергей
Image

Year:1987 (2006 Re-Issue)
Style:Thrash Metal
Country:Brazil
Audio:Flac+Cue+Log+Scans
Size:279Mb
Source:my CD
Label:Encore Records

Line-Up:
Angel - vocals
Fernando Levine - bass
Zhema - guitars
Arthur - drums

Tracklist:
01. Red Death 03:29
02. Death Angel's Armies 02:29
03. Brainwash 02:46
04. F.T.W. (Fuck The War) 02:57
05. Fallen Angels 06:30
06. Anthropophagy 02:49
07. Anyone Can Kill 04:01
08. Stirring 03:52
09. (Am I Crazy?) 00:59
10. Megathrash 03:08
11. Upright 03:15

"Cue"
REM GENRE "Thrash Metal"
REM DATE 1987
REM DISCID 7508990B
REM COMMENT "ExactAudioCopy v0.99pb5"
PERFORMER "Vulcano"
TITLE "Anthropophagy"
FILE "Vulcano - Anthropophagy.flac" WAVE
TRACK 01 AUDIO
TITLE "Red Death"
PERFORMER "Vulcano"
INDEX 01 00:00:00
TRACK 02 AUDIO
TITLE "Death Angel's Armies"
PERFORMER "Vulcano"
INDEX 00 03:29:31
INDEX 01 03:31:31
TRACK 03 AUDIO
TITLE "Brainwash"
PERFORMER "Vulcano"
INDEX 00 06:00:44
INDEX 01 06:02:44
TRACK 04 AUDIO
TITLE "F.T.W. (Fuck the War)"
PERFORMER "Vulcano"
INDEX 00 08:49:05
INDEX 01 08:51:05
TRACK 05 AUDIO
TITLE "Fallen Angels"
PERFORMER "Vulcano"
INDEX 00 11:48:73
INDEX 01 11:50:73
TRACK 06 AUDIO
TITLE "Anthropophagy"
PERFORMER "Vulcano"
INDEX 00 18:21:60
INDEX 01 18:23:60
TRACK 07 AUDIO
TITLE "Anyone Can Kill"
PERFORMER "Vulcano"
INDEX 00 21:13:25
INDEX 01 21:15:25
TRACK 08 AUDIO
TITLE "Stirring"
PERFORMER "Vulcano"
INDEX 00 25:16:70
INDEX 01 25:18:70
TRACK 09 AUDIO
TITLE "(Am I Crazy?)"
PERFORMER "Vulcano"
INDEX 00 29:11:33
INDEX 01 29:13:33
TRACK 10 AUDIO
TITLE "Megathrash"
PERFORMER "Vulcano"
INDEX 00 30:12:59
INDEX 01 30:14:59
TRACK 11 AUDIO
TITLE "Upright"
PERFORMER "Vulcano"
INDEX 00 33:23:53
INDEX 01 33:25:53

"Log"
Exact Audio Copy V0.99 prebeta 5 from 4. May 2009

Отчёт EAC об извлечении, выполненном 8. сентября 2013, 14:35

Vulcano / Anthropophagy

Дисковод: MATSHITADVD-RAM UJ8A0AS Adapter: 0 ID: 1

Режим чтения : Достоверность
Использование точного потока : Да
Отключение кэша аудио : Да
Использование указателей C2 : Нет

Коррекция смещения при чтении : 102
Способность читать области Lead-in и Lead-out : Нет
Заполнение пропущенных сэмплов тишиной : Да
Удаление блоков с тишиной в начале и конце : Нет
При вычислениях CRC использовались нулевые сэмплы : Да
Интерфейс : Встроенный Win32-интерфейс для Win NT/2000

Выходной формат : Пользовательский кодировщик
Выбранный битрейт : 1024 kBit/s
Качество : Высокий
Добавление ID3-тэга : Нет
Утилита сжатия : C:\Program Files\Exact Audio Copy\FLAC\FLAC.EXE
Дополнительные параметры : -6 -V -T "ARTIST=%a" -T "TITLE=%t" -T "ALBUM=%g" -T "DATE=%y" -T "TRACKNUMBER=%n" -T "GENRE=%m" -T "COMMENT=%e" %s -o %d


TOC извлечённого CD

Трек | Старт | Длительность | Начальный сектор | Конечный сектор
---------------------------------------------------------------------
1 | 0:00.00 | 3:31.31 | 0 | 15855
2 | 3:31.31 | 2:31.13 | 15856 | 27193
3 | 6:02.44 | 2:48.36 | 27194 | 39829
4 | 8:51.05 | 2:59.68 | 39830 | 53322
5 | 11:50.73 | 6:32.62 | 53323 | 82784
6 | 18:23.60 | 2:51.40 | 82785 | 95649
7 | 21:15.25 | 4:03.45 | 95650 | 113919
8 | 25:18.70 | 3:54.38 | 113920 | 131507
9 | 29:13.33 | 1:01.26 | 131508 | 136108
10 | 30:14.59 | 3:10.69 | 136109 | 150427
11 | 33:25.53 | 3:15.30 | 150428 | 165082


Характеристики диапазона извлечения и сообщения об ошибках

Выбранный диапазон

Имя файла C:\Users\эксперт\Music\Vulcano - Anthropophagy.wav

Пиковый уровень 99.9 %
Качество диапазона 100.0 %
CRC копии 24E9423F
Копирование... OK

Ошибок не произошло


AccurateRip: сводка

Трек 1 нет в базе данных
Трек 2 нет в базе данных
Трек 3 нет в базе данных
Трек 4 нет в базе данных
Трек 5 нет в базе данных
Трек 6 нет в базе данных
Трек 7 нет в базе данных
Трек 8 нет в базе данных
Трек 9 нет в базе данных
Трек 10 нет в базе данных
Трек 11 нет в базе данных

Ни одного трека нет в базе AccurateRip

Конец отчёта


Anthropophagy


Top
 Profile  
 
 
PostPosted: 12 May 2015 
ТрэшЭрос
User avatar
Joined: 18 Jul 2011
Posts: 2292
Lоcаtion: Гулькевичи
Age: 42
Name: Александр
35-летний Вулкан, изрыгивающий оккультизм, смерть, зло и металл - иногда это то, что мне нужно :true:
Спасибо, Серёга!!!

_________________
Thrash no trash!!!


Top
 Profile E-mail  
 
 
PostPosted: 12 May 2015 
Генеральный thrasher
User avatar
Joined: 03 Oct 2008
Posts: 3255
Lоcаtion: Ханты-Мансийский АО
Age: 42
Name: Сергей
Сань,ты чего?Как Ленин в ссылке был что-ли?Всё давно выложено...Где пропадал? :shok:


Top
 Profile  
 
 
PostPosted: 12 May 2015 
ТрэшЭрос
User avatar
Joined: 18 Jul 2011
Posts: 2292
Lоcаtion: Гулькевичи
Age: 42
Name: Александр
А я продолжаю "пропадать" :oops: Не Ленин, но в ссылке на Кавказе - ещё месяц остался и... :dance: "Чёрный кофе" - "Вольному воля" :benya:
Так что потихонечку нахожу время, чтобы зайти в эту "аптеку" и получить свою дозу "лекарств"... :umnik:

_________________
Thrash no trash!!!


Top
 Profile E-mail  
 
Display posts from previous:  Sort by  
Post new topic Reply to topic  [ 4 posts ] 

All times are UTC + 3 hours


Who is online

Users browsing this forum: No registered users and 1 guest


You cannot post new topics in this forum
You cannot reply to topics in this forum
You cannot edit your posts in this forum
You cannot delete your posts in this forum
You cannot post attachments in this forum

Search for:
Яндекс.Метрика
Powered by phpBB © 2000, 2002, 2005, 2007 phpBB Group