\m/ 80's metal \m/

Информационно-аналитический форум "80 см пыли" (In Search We Trust) "У нас никто никуда не спешит"
Железнодорожная биржа - RailAgent
It is currently 24 Sep 2017

All times are UTC + 3 hours

Spoiler
Chat - temporary registration for foreign users (please leave your application here)







Post new topic Reply to topic  [ 4 posts ] 
Author Message
 
PostPosted: 11 Sep 2013 
Генеральный thrasher
User avatar
Joined: 03 Oct 2008
Posts: 3148
Lоcаtion: Ханты-Мансийский АО
Age: 42
Name: Сергей
Image

Year:1990
Style:Thrash Metal
Country:Brazil
Audio:Flac+Cue+Log+Scans
Size:237Mb
Source:my CD
Label:Encore Records

Line-Up:
Angel - vocals
Levine - bass
Zhema - guitar
Soto Jr. - guitars
Arthur - drums

Tracklist:
01. White Violence 03:09
02. Last Day 04:43
03. Blind Science 05:19
04. Welcome to the Army 02:10
05. Time To Change 03:40
06. Ratrace 04:23
07. The Lungs of the Earth 04:26
08. Just a Matter of Time 02:52
09. In the Mirror 00:41

"Cue"
REM GENRE "Thrash Metal"
REM DATE 1990
REM DISCID 81075F09
REM COMMENT "ExactAudioCopy v0.99pb5"
PERFORMER "Vulcano"
TITLE "Ratrace"
FILE "Vulcano - Ratrace.flac" WAVE
TRACK 01 AUDIO
TITLE "White Violence"
PERFORMER "Vulcano"
INDEX 01 00:00:00
TRACK 02 AUDIO
TITLE "Last Day"
PERFORMER "Vulcano"
INDEX 01 03:09:70
TRACK 03 AUDIO
TITLE "Blind Science"
PERFORMER "Vulcano"
INDEX 01 07:53:05
TRACK 04 AUDIO
TITLE "Welcome To The Army"
PERFORMER "Vulcano"
INDEX 01 13:12:18
TRACK 05 AUDIO
TITLE "Time To Change"
PERFORMER "Vulcano"
INDEX 01 15:23:11
TRACK 06 AUDIO
TITLE "Ratrace"
PERFORMER "Vulcano"
INDEX 01 19:03:12
TRACK 07 AUDIO
TITLE "The Lungs Of The Earth"
PERFORMER "Vulcano"
INDEX 01 23:27:11
TRACK 08 AUDIO
TITLE "Just A Matter Of Time"
PERFORMER "Vulcano"
INDEX 01 27:53:46
TRACK 09 AUDIO
TITLE "In The Mirror"
PERFORMER "Vulcano"
INDEX 01 30:45:48

"Log"
Exact Audio Copy V0.99 prebeta 5 from 4. May 2009

Отчёт EAC об извлечении, выполненном 28. августа 2013, 13:42

Vulcano / Ratrace

Дисковод: MATSHITADVD-RAM UJ8A0AS Adapter: 0 ID: 1

Режим чтения : Достоверность
Использование точного потока : Да
Отключение кэша аудио : Да
Использование указателей C2 : Нет

Коррекция смещения при чтении : 102
Способность читать области Lead-in и Lead-out : Нет
Заполнение пропущенных сэмплов тишиной : Да
Удаление блоков с тишиной в начале и конце : Нет
При вычислениях CRC использовались нулевые сэмплы : Да
Интерфейс : Встроенный Win32-интерфейс для Win NT/2000

Выходной формат : Пользовательский кодировщик
Выбранный битрейт : 1024 kBit/s
Качество : Высокий
Добавление ID3-тэга : Нет
Утилита сжатия : C:\Program Files\Exact Audio Copy\FLAC\FLAC.EXE
Дополнительные параметры : -6 -V -T "ARTIST=%a" -T "TITLE=%t" -T "ALBUM=%g" -T "DATE=%y" -T "TRACKNUMBER=%n" -T "GENRE=%m" -T "COMMENT=%e" %s -o %d


TOC извлечённого CD

Трек | Старт | Длительность | Начальный сектор | Конечный сектор
---------------------------------------------------------------------
1 | 0:00.00 | 3:09.70 | 0 | 14244
2 | 3:09.70 | 4:43.10 | 14245 | 35479
3 | 7:53.05 | 5:19.13 | 35480 | 59417
4 | 13:12.18 | 2:10.68 | 59418 | 69235
5 | 15:23.11 | 3:40.01 | 69236 | 85736
6 | 19:03.12 | 4:23.74 | 85737 | 105535
7 | 23:27.11 | 4:26.35 | 105536 | 125520
8 | 27:53.46 | 2:52.02 | 125521 | 138422
9 | 30:45.48 | 0:41.55 | 138423 | 141552


Характеристики диапазона извлечения и сообщения об ошибках

Выбранный диапазон

Имя файла C:\Users\эксперт\Music\Vulcano - Ratrace.wav

Пиковый уровень 100.0 %
Качество диапазона 100.0 %
CRC копии 01DA48A0
Копирование... OK

Ошибок не произошло


AccurateRip: сводка

Трек 1 точность не определена (достоверность 1) [51434D0E], AccurateRip вернул [3BE6E8B4]
Трек 2 точность не определена (достоверность 1) [23CF49A1], AccurateRip вернул [730AE475]
Трек 3 точность не определена (достоверность 1) [BA5EE4B9], AccurateRip вернул [264885AA]
Трек 4 точность не определена (достоверность 1) [14ED30A3], AccurateRip вернул [EB719F09]
Трек 5 точность не определена (достоверность 1) [21979753], AccurateRip вернул [BFF8DA6F]
Трек 6 точность не определена (достоверность 1) [5B47200A], AccurateRip вернул [12C53B39]
Трек 7 точность не определена (достоверность 1) [290BE4E0], AccurateRip вернул [9D92132C]
Трек 8 точность не определена (достоверность 1) [737EF2F7], AccurateRip вернул [CA37DC58]
Трек 9 точность не определена (достоверность 1) [5745BF45], AccurateRip вернул [F74A62EA]

Ни один трек не прошёл проверки на точность
В вашей базе может быть иной вариант штамповки диска

Конец отчёта


Ratrace


Top
 Profile  
 
 
PostPosted: 11 Sep 2013 
Хиппей (support team)
User avatar
Joined: 30 Jul 2007
Posts: 93247
Lоcаtion: Киев (Kyiv, UA)
Age: 44
Name: Andrey
:thanx:

mirror: Narod

_________________


Top
 Profile E-mail  
 
 
PostPosted: 13 Sep 2013 
ТрэшЭрос
User avatar
Joined: 18 Jul 2011
Posts: 2292
Lоcаtion: Гулькевичи
Age: 42
Name: Александр
thorbeorn :thanx:
Надеюсь, трэш здесь преобладает на смертью? :true:

_________________
Thrash no trash!!!


Top
 Profile E-mail  
 
 
PostPosted: 15 Sep 2013 
Студентег
User avatar
Joined: 28 Aug 2007
Posts: 4937
Lоcаtion: г. Москва
Age: 28
Name: Дима
Спасибо! Злобный такой трэшак :true: Впринципе неплохо, но вокал не очень такой люблю..


Top
 Profile E-mail  
 
Display posts from previous:  Sort by  
Post new topic Reply to topic  [ 4 posts ] 

All times are UTC + 3 hours


Who is online

Users browsing this forum: No registered users and 2 guests


You cannot post new topics in this forum
You cannot reply to topics in this forum
You cannot edit your posts in this forum
You cannot delete your posts in this forum
You cannot post attachments in this forum

Search for:
Яндекс.Метрика
Powered by phpBB © 2000, 2002, 2005, 2007 phpBB Group