\m/ 80's metal \m/

Информационно-аналитический форум "80 см пыли" (In Search We Trust) "У нас никто никуда не спешит"
Железнодорожная биржа - RailAgent
It is currently 19 Nov 2017

All times are UTC + 3 hours

Spoiler
Chat - temporary registration for foreign users (please leave your application here)







Post new topic Reply to topic  [ 11 posts ] 
Author Message
 
PostPosted: 02 Jul 2013 
Генеральный thrasher
User avatar
Joined: 03 Oct 2008
Posts: 3234
Lоcаtion: Ханты-Мансийский АО
Age: 42
Name: Сергей
Image

Year:1986
Style:Death/Thrash Metal
Country:Brazil
Audio:Flac+Cue+Log+Scans
Source:my CD
Size:193Mb
Label:Cogumelo Records

Line-Up:
Angel - vocal
Zhema - bass
Soto Jr. - guitar
Flavio - guitar
Laudir Piloni - drums

Tracklist:
01. Dominios of Death 02:53
02. Spirits of Evil 03:38
03. Ready to Explode 01:38
04. Holocaust 03:46
05. Incubus 02:11
06. Death Metal 03:49
07. Voices from Hell 00:17
08. Bloody Vengeance 05:11

"Log"
Exact Audio Copy V0.99 prebeta 5 from 4. May 2009

Отчёт EAC об извлечении, выполненном 20. июня 2013, 17:02

Vulcano / Bloody Vengeance

Дисковод: MATSHITADVD-RAM UJ8A0AS Adapter: 0 ID: 1

Режим чтения : Достоверность
Использование точного потока : Да
Отключение кэша аудио : Да
Использование указателей C2 : Нет

Коррекция смещения при чтении : 102
Способность читать области Lead-in и Lead-out : Нет
Заполнение пропущенных сэмплов тишиной : Да
Удаление блоков с тишиной в начале и конце : Нет
При вычислениях CRC использовались нулевые сэмплы : Да
Интерфейс : Встроенный Win32-интерфейс для Win NT/2000

Выходной формат : Пользовательский кодировщик
Выбранный битрейт : 1024 kBit/s
Качество : Высокий
Добавление ID3-тэга : Нет
Утилита сжатия : C:\Program Files\Exact Audio Copy\FLAC\FLAC.EXE
Дополнительные параметры : -6 -V -T "ARTIST=%a" -T "TITLE=%t" -T "ALBUM=%g" -T "DATE=%y" -T "TRACKNUMBER=%n" -T "GENRE=%m" -T "COMMENT=%e" %s -o %d


TOC извлечённого CD

Трек | Старт | Длительность | Начальный сектор | Конечный сектор
---------------------------------------------------------------------
1 | 0:00.00 | 2:53.32 | 0 | 13006
2 | 2:53.32 | 3:38.00 | 13007 | 29356
3 | 6:31.32 | 1:38.00 | 29357 | 36706
4 | 8:09.32 | 3:46.23 | 36707 | 53679
5 | 11:55.55 | 2:11.09 | 53680 | 63513
6 | 14:06.64 | 3:49.68 | 63514 | 80756
7 | 17:56.57 | 0:17.28 | 80757 | 82059
8 | 18:14.10 | 5:11.25 | 82060 | 105409


Характеристики диапазона извлечения и сообщения об ошибках

Выбранный диапазон

Имя файла C:\Users\эксперт\Music\Vulcano - Bloody Vengeance.wav

Пиковый уровень 100.0 %
Качество диапазона 100.0 %
CRC копии 8DFAFBD3
Копирование... OK

Ошибок не произошло


AccurateRip: сводка

Трек 1 точное извлечение (доверие 2) [35FD1440]
Трек 2 точное извлечение (доверие 2) [AA84A564]
Трек 3 точное извлечение (доверие 2) [C14BE0E3]
Трек 4 точное извлечение (доверие 2) [02D602F4]
Трек 5 точное извлечение (доверие 2) [DE460C94]
Трек 6 точное извлечение (доверие 2) [36C3B3CF]
Трек 7 точное извлечение (доверие 2) [9FBA5120]
Трек 8 точное извлечение (доверие 2) [9E9701BD]

Все треки извлечены точно

Конец отчёта

"Cue"
REM GENRE "Black/Thrash Metal"
REM DATE 1986
REM DISCID 6F057D08
REM COMMENT "ExactAudioCopy v0.99pb5"
PERFORMER "Vulcano"
TITLE "Bloody Vengeance"
FILE "Vulcano - Bloody Vengeance.flac" WAVE
TRACK 01 AUDIO
TITLE "Dominios Of Death"
PERFORMER "Vulcano"
INDEX 01 00:00:00
TRACK 02 AUDIO
TITLE "Spirits Of Evil"
PERFORMER "Vulcano"
INDEX 00 02:51:65
INDEX 01 02:53:32
TRACK 03 AUDIO
TITLE "Ready To Explode"
PERFORMER "Vulcano"
INDEX 00 06:29:65
INDEX 01 06:31:32
TRACK 04 AUDIO
TITLE "Holocaust"
PERFORMER "Vulcano"
INDEX 00 08:07:50
INDEX 01 08:09:32
TRACK 05 AUDIO
TITLE "Incubus"
PERFORMER "Vulcano"
INDEX 00 11:54:07
INDEX 01 11:55:55
TRACK 06 AUDIO
TITLE "Death Metal"
PERFORMER "Vulcano"
INDEX 00 14:05:22
INDEX 01 14:06:64
TRACK 07 AUDIO
TITLE "Voices From Hell"
PERFORMER "Vulcano"
INDEX 00 17:55:02
INDEX 01 17:56:57
TRACK 08 AUDIO
TITLE "Bloody Vengeance"
PERFORMER "Vulcano"
INDEX 01 18:14:10



Bloody Vengeance

Думал,что постил этот альбом.Оказалось нет.Пусть будет.Тем более скоро ещё два альбома придёт...


Top
 Profile  
 
 
PostPosted: 02 Jul 2013 
Доктор энтомологии
User avatar
Joined: 22 Jan 2009
Posts: 8372
Lоcаtion: Даугавпилс
Age: 42
Name: Алексей
Спасибо большое за флачок любимого альбома группы :thanx: :true: :true: :true:


Top
 Profile  
 
 
PostPosted: 02 Jul 2013 
ТрэшЭрос
User avatar
Joined: 18 Jul 2011
Posts: 2292
Lоcаtion: Гулькевичи
Age: 42
Name: Александр
thorbeorn wrote:
Style:Death/Thrash Metal
Дэф в 86-м? Скорее, трррэш. Поэтому и я возьму послушать.
:thanx: , Сергей!

_________________
Thrash no trash!!!


Top
 Profile E-mail  
 
 
PostPosted: 02 Jul 2013 
Генеральный thrasher
User avatar
Joined: 03 Oct 2008
Posts: 3234
Lоcаtion: Ханты-Мансийский АО
Age: 42
Name: Сергей
Саш,глянь название шестой песни :smile: Вообще альбом ужасно грязно прописан (спасибо фирме Сogumelo)...Опустошающая долбёжка!Тем и ценен.


Top
 Profile  
 
 
PostPosted: 02 Jul 2013 
Хиппей (support team)
User avatar
Joined: 30 Jul 2007
Posts: 95697
Lоcаtion: Киев (Kyiv, UA)
Age: 44
Name: Andrey
:thanx:

mirror: F-Bit l Narod

_________________


Top
 Profile E-mail  
 
 
PostPosted: 02 Jul 2013 
ТрэшЭрос
User avatar
Joined: 18 Jul 2011
Posts: 2292
Lоcаtion: Гулькевичи
Age: 42
Name: Александр
thorbeorn wrote:
альбом ужасно грязно прописан

Это мы уже проходили - Sepultura ранняя тоже не блистала качеством, когда жаркими ночами писали альбомы "на коленках"... :pardon:

_________________
Thrash no trash!!!


Top
 Profile E-mail  
 
 
PostPosted: 02 Jul 2013 
ТрэшЭрос
User avatar
Joined: 18 Jul 2011
Posts: 2292
Lоcаtion: Гулькевичи
Age: 42
Name: Александр
thorbeorn wrote:
Опустошающая долбёжка!Тем и ценен.

Согласен! :true:

_________________
Thrash no trash!!!


Top
 Profile E-mail  
 
 
PostPosted: 02 Jul 2013 
Хиппей (support team)
User avatar
Joined: 30 Jul 2007
Posts: 95697
Lоcаtion: Киев (Kyiv, UA)
Age: 44
Name: Andrey
Трушный брутальный thrash-death :true: :true: :true: И лучший в дискографии группы :dance:

Еще у брата были в тетрадки пометочки с двумя альбомами группы. То есть, значит были и на кассетах :umnik:

_________________


Top
 Profile E-mail  
 
 
PostPosted: 20 Dec 2015 
консэрваторъ
Joined: 11 Aug 2007
Posts: 14239
Lоcаtion: Псков
Age: 43
Name: Сергей
Блин, да ведь пурга же на самом деле!.. А я их ещё в планы ставил на собирание... Потыркал в фул-ленсы, ничего особо не понравилось... :( Блэкуха какая-то с вокалистом "занято"...

_________________
THRASH 'EM ALL


Top
 Profile E-mail  
 
 
PostPosted: 20 Dec 2015 
Доктор энтомологии
User avatar
Joined: 22 Jan 2009
Posts: 8372
Lоcаtion: Даугавпилс
Age: 42
Name: Алексей
Да, самая настоящая шипастая инфернальщина. За то и любим :lob:


Top
 Profile  
 
 
PostPosted: 20 Dec 2015 
Генеральный thrasher
User avatar
Joined: 03 Oct 2008
Posts: 3234
Lоcаtion: Ханты-Мансийский АО
Age: 42
Name: Сергей
На рутрэкере переиздание от 2014 года раздаётся.Никто не брал?Что там со звуком интересно...


Top
 Profile  
 
Display posts from previous:  Sort by  
Post new topic Reply to topic  [ 11 posts ] 

All times are UTC + 3 hours


Who is online

Users browsing this forum: No registered users and 1 guest


You cannot post new topics in this forum
You cannot reply to topics in this forum
You cannot edit your posts in this forum
You cannot delete your posts in this forum
You cannot post attachments in this forum

Search for:
Яндекс.Метрика
Powered by phpBB © 2000, 2002, 2005, 2007 phpBB Group