\m/ 80's metal \m/

Информационно-аналитический форум "80 см пыли" (In Search We Trust) "У нас никто никуда не спешит"
Железнодорожная биржа - RailAgent
It is currently 24 Sep 2017

All times are UTC + 3 hours

Spoiler
Chat - temporary registration for foreign users (please leave your application here)







Post new topic Reply to topic  [ 8 posts ] 
Author Message
 
PostPosted: 20 Jun 2013 
Генеральный thrasher
User avatar
Joined: 03 Oct 2008
Posts: 3148
Lоcаtion: Ханты-Мансийский АО
Age: 42
Name: Сергей
Image

Year:2004
Style:Death/Thrash Metal
Country:Brazil
Audio:Flac+Cue+Log+Scans
Source:my CD
Size:347Mb
Label:Renegados Records

Line-Up:
Angel - vocals
Andre Martins- guitars
Cláudio Passamani - guitars
Arthur Von Barbarian - drums
Zhema Rodero - bass

Tracklist:
01. Gates of Iron 02:59
02. The Bells of Death 02:56
03. Priestes of Bacchus 01:59
04. From the Black Metal Book 03:01
05. Devote to the Devil 02:20
06. Fall of the Corpse 04:03
07. Face of the Terror 03:17
08. Guerreiros de Satã 02:59
09. Troubled Mind 02:27
10. The Sign Carved On The Door 03:12
11. Obscure Soldiers 02:21
12. Total Destruição 03:04
13. Bestial Insane 07:53

"Cue"
REM GENRE "Death /Thrash Metal"
REM DATE 2004
REM DISCID C609FC0D
REM COMMENT "ExactAudioCopy v0.99pb5"
PERFORMER "Vulcano"
TITLE "Tales From The Black Book"
FILE "Vulcano - Tales From The Black Book.flac" WAVE
TRACK 01 AUDIO
TITLE "Gates Of Iron"
PERFORMER "Vulcano"
FLAGS PRE 4CH
INDEX 01 00:00:00
TRACK 02 AUDIO
TITLE "The Bells Of Death"
PERFORMER "Vulcano"
FLAGS PRE 4CH
INDEX 01 02:59:00
TRACK 03 AUDIO
TITLE "Priestes Of Bacchus"
PERFORMER "Vulcano"
FLAGS PRE 4CH
INDEX 01 05:55:06
TRACK 04 AUDIO
TITLE "From The Black Metal Book"
PERFORMER "Vulcano"
FLAGS PRE 4CH
INDEX 01 07:54:31
TRACK 05 AUDIO
TITLE "Devote To The Devil"
PERFORMER "Vulcano"
FLAGS PRE 4CH
INDEX 01 10:55:38
TRACK 06 AUDIO
TITLE "Fall Of The Corpse"
PERFORMER "Vulcano"
FLAGS PRE 4CH
INDEX 01 13:16:01
TRACK 07 AUDIO
TITLE "Face Of The Terror"
PERFORMER "Vulcano"
FLAGS PRE 4CH
INDEX 01 17:19:59
TRACK 08 AUDIO
TITLE "Guerreiros de Satг"
PERFORMER "Vulcano"
FLAGS PRE 4CH
INDEX 01 20:36:70
TRACK 09 AUDIO
TITLE "Troubled Mind"
PERFORMER "Vulcano"
FLAGS PRE 4CH
INDEX 01 23:36:22
TRACK 10 AUDIO
TITLE "The Sign Carved On The Door"
PERFORMER "Vulcano"
FLAGS PRE 4CH
INDEX 01 26:03:37
TRACK 11 AUDIO
TITLE "Obscure Soldires"
PERFORMER "Vulcano"
FLAGS PRE 4CH
INDEX 01 29:15:73
TRACK 12 AUDIO
TITLE "Total Destruiзгo"
PERFORMER "Vulcano"
FLAGS PRE 4CH
INDEX 01 31:37:51
TRACK 13 AUDIO
TITLE "Bestial Insane"
PERFORMER "Vulcano"
FLAGS PRE 4CH
INDEX 01 34:42:31

"Log"
Exact Audio Copy V0.99 prebeta 5 from 4. May 2009

Отчёт EAC об извлечении, выполненном 18. июня 2013, 17:55

Vulcano / Tales From The Black Book

Дисковод: MATSHITADVD-RAM UJ8A0AS Adapter: 0 ID: 1

Режим чтения : Достоверность
Использование точного потока : Да
Отключение кэша аудио : Да
Использование указателей C2 : Нет

Коррекция смещения при чтении : 102
Способность читать области Lead-in и Lead-out : Нет
Заполнение пропущенных сэмплов тишиной : Да
Удаление блоков с тишиной в начале и конце : Нет
При вычислениях CRC использовались нулевые сэмплы : Да
Интерфейс : Встроенный Win32-интерфейс для Win NT/2000

Выходной формат : Пользовательский кодировщик
Выбранный битрейт : 1024 kBit/s
Качество : Высокий
Добавление ID3-тэга : Нет
Утилита сжатия : C:\Program Files\Exact Audio Copy\FLAC\FLAC.EXE
Дополнительные параметры : -6 -V -T "ARTIST=%a" -T "TITLE=%t" -T "ALBUM=%g" -T "DATE=%y" -T "TRACKNUMBER=%n" -T "GENRE=%m" -T "COMMENT=%e" %s -o %d


TOC извлечённого CD

Трек | Старт | Длительность | Начальный сектор | Конечный сектор
---------------------------------------------------------------------
1 | 0:00.00 | 2:59.00 | 0 | 13424
2 | 2:59.00 | 2:56.06 | 13425 | 26630
3 | 5:55.06 | 1:59.25 | 26631 | 35580
4 | 7:54.31 | 3:01.07 | 35581 | 49162
5 | 10:55.38 | 2:20.38 | 49163 | 59700
6 | 13:16.01 | 4:03.58 | 59701 | 77983
7 | 17:19.59 | 3:17.11 | 77984 | 92769
8 | 20:36.70 | 2:59.27 | 92770 | 106221
9 | 23:36.22 | 2:27.15 | 106222 | 117261
10 | 26:03.37 | 3:12.36 | 117262 | 131697
11 | 29:15.73 | 2:21.53 | 131698 | 142325
12 | 31:37.51 | 3:04.55 | 142326 | 156180
13 | 34:42.31 | 7:53.52 | 156181 | 191707


Характеристики диапазона извлечения и сообщения об ошибках

Выбранный диапазон

Имя файла C:\Users\эксперт\Music\Vulcano - Tales From The Black Book.wav

Пиковый уровень 97.2 %
Качество диапазона 100.0 %
CRC копии AEC5B4D3
Копирование... OK

Ошибок не произошло


AccurateRip: сводка

Трек 1 нет в базе данных
Трек 2 нет в базе данных
Трек 3 нет в базе данных
Трек 4 нет в базе данных
Трек 5 нет в базе данных
Трек 6 нет в базе данных
Трек 7 нет в базе данных
Трек 8 нет в базе данных
Трек 9 нет в базе данных
Трек 10 нет в базе данных
Трек 11 нет в базе данных
Трек 12 нет в базе данных
Трек 13 нет в базе данных

Ни одного трека нет в базе AccurateRip

Конец отчёта


Tales From The Black Book


Top
 Profile  
 
 
PostPosted: 20 Jun 2013 
Генеральный thrasher
User avatar
Joined: 03 Oct 2008
Posts: 3148
Lоcаtion: Ханты-Мансийский АО
Age: 42
Name: Сергей
Стилистика группы - смесь трэша,архаичного бразильского блэка и чуть дэзняка.Но этот альбом на мой взгляд чисто трэшовый...


Top
 Profile  
 
 
PostPosted: 20 Jun 2013 
Хиппей (support team)
User avatar
Joined: 30 Jul 2007
Posts: 93243
Lоcаtion: Киев (Kyiv, UA)
Age: 44
Name: Andrey
:thanx:

mirror: F-Bit l Narod

_________________


Top
 Profile E-mail  
 
 
PostPosted: 22 Jun 2013 
Хиппей (support team)
User avatar
Joined: 30 Jul 2007
Posts: 93243
Lоcаtion: Киев (Kyiv, UA)
Age: 44
Name: Andrey
Отличный альбом :true: :true: :true:
и пусть немного звук грязноват, но это не мешает наслаждаться музыкой.
Приставку Death Metal можно отсюда смело убирать :dance:

Image

_________________


Top
 Profile E-mail  
 
 
PostPosted: 23 Jun 2013 
Генеральный thrasher
User avatar
Joined: 03 Oct 2008
Posts: 3148
Lоcаtion: Ханты-Мансийский АО
Age: 42
Name: Сергей
Отличный альбом :true: :true: :true:
и пусть немного звук грязноват, но это не мешает наслаждаться музыкой.
Приставку Death Metal можно отсюда смело убирать :dance:


Я и писал,что это трэшовый альбом...Рад,что тебе понравилось.С Димой Church заказали ещё Ratrace 1990 года.Как придёт выложу.


Top
 Profile  
 
 
PostPosted: 23 Jun 2013 
Хиппей (support team)
User avatar
Joined: 30 Jul 2007
Posts: 93243
Lоcаtion: Киев (Kyiv, UA)
Age: 44
Name: Andrey
thorbeorn wrote:
С Димой Church заказали ещё Ratrace 1990 года.Как придёт выложу.

:true:

_________________


Top
 Profile E-mail  
 
 
PostPosted: 29 Jun 2013 
ТрэшЭрос
User avatar
Joined: 18 Jul 2011
Posts: 2292
Lоcаtion: Гулькевичи
Age: 42
Name: Александр
thorbeorn, :thanx:
Толково и забойно, как раз под настроение угэшное! :true:

_________________
Thrash no trash!!!


Top
 Profile E-mail  
 
 
PostPosted: 29 Jun 2013 
Студентег
User avatar
Joined: 28 Aug 2007
Posts: 4937
Lоcаtion: г. Москва
Age: 28
Name: Дима
Честно не слушал ни одного их альбома, попробую, раз он чисто трэшевый, то должен понравиться) Спасибо! :thanx:


Top
 Profile E-mail  
 
Display posts from previous:  Sort by  
Post new topic Reply to topic  [ 8 posts ] 

All times are UTC + 3 hours


Who is online

Users browsing this forum: No registered users and 3 guests


You cannot post new topics in this forum
You cannot reply to topics in this forum
You cannot edit your posts in this forum
You cannot delete your posts in this forum
You cannot post attachments in this forum

Search for:
Яндекс.Метрика
Powered by phpBB © 2000, 2002, 2005, 2007 phpBB Group