\m/ 80's metal \m/

Информационно-аналитический форум "80 см пыли" (In Search We Trust) "У нас никто никуда не спешит"
Железнодорожная биржа - RailAgent
It is currently 18 Aug 2017

All times are UTC + 3 hours

Spoiler
Chat - temporary registration for foreign users (please leave your application here)







Post new topic Reply to topic  [ 3 posts ] 
Author Message
 
PostPosted: 16 Jun 2013 
Хиппей (support team)
User avatar
Joined: 30 Jul 2007
Posts: 92233
Lоcаtion: Киев (Kyiv, UA)
Age: 44
Name: Andrey
Vyndykator - 2002 - Heaven Sent From Hell [flac]

Image

Genre: Heavy Metal with Power Metal influences
Location: USA
Format: flac + cue + log + scans
Size: 241 Mb


Line-up:

Bob Mitchell - vocals
Steve Ratchen - bass
Bill Peńa - guitars
Rob Oriani - (R.I.P. 2006) - guitars
John Caton - drums
John Cona - drums

    1. Eternal Rest - 02:18
    2. Blood Stained Gallows - 06:46
    3. Rot in the Chamber - 04:03
    4. Tapping in the Vein - 05:21
    5. Mister Murder - 07:05
    6. Flight of the Wombat - 04:10
    7. Deceiver (Judas Priest cover) - 03:10

    TPT: 32:57

F-Bit l Narod

Благодарим Олега Спиралыча за предоставленную электронную копию альбома :thanx:

Сам еще толком не расслушал, но музыка нравится.
Это не очередной клон Пристов, но вокал очень уж похож, хоть и поет в более расширенном сдавленном диапазоне, нежели Роб, но... визги фирменные не тянет.
По музыке это крепкий такой хэви с америко-пауэрными мотивами и чуточкой прога.

В концовочке шестого трэка звучит какая-то дюже знакомая мелодия. Кто отгадает автора?

Примерно 6/10

зы. Некоторая добавка спустя 3 прослушивания. А ведь в музыке этой группы очень много риффов родом из 70-х. Чисто британского пошиба :scratch:

log
Exact Audio Copy V1.0 beta 1 from 15. November 2010

EAC extraction logfile from 29. March 2013, 23:16

Vyndykator / Heaven Sent From Hell

Used drive : Optiarc DVD RW AD-7240S Adapter: 2 ID: 0

Read mode : Secure
Utilize accurate stream : Yes
Defeat audio cache : Yes
Make use of C2 pointers : No

Read offset correction : 48
Overread into Lead-In and Lead-Out : No
Fill up missing offset samples with silence : Yes
Delete leading and trailing silent blocks : No
Null samples used in CRC calculations : Yes
Used interface : Native Win32 interface for Win NT & 2000

Used output format : Internal WAV Routines
Sample format : 44.100 Hz; 16 Bit; Stereo


TOC of the extracted CD

Track | Start | Length | Start sector | End sector
---------------------------------------------------------
1 | 0:00.00 | 2:18.16 | 0 | 10365
2 | 2:18.16 | 6:46.20 | 10366 | 40835
3 | 9:04.36 | 4:03.71 | 40836 | 59131
4 | 13:08.32 | 5:21.59 | 59132 | 83265
5 | 18:30.16 | 7:05.71 | 83266 | 115211
6 | 25:36.12 | 4:10.64 | 115212 | 134025
7 | 29:47.01 | 3:10.30 | 134026 | 148305


Range status and errors

Selected range

Filename D:\spiralarch\Vyndykator - Heaven Sent From Hell.wav

Peak level 100.0 %
Extraction speed 0.3 X
Range quality 100.0 %
Copy CRC B9CB3603
Copy OK

No errors occurred


AccurateRip summary

Track 1 not present in database
Track 2 not present in database
Track 3 not present in database
Track 4 not present in database
Track 5 not present in database
Track 6 not present in database
Track 7 not present in database

None of the tracks are present in the AccurateRip database

End of status report

==== Log checksum 871C79CD144614B8425E3B93619682BD96BE67DD9642E31F42D45DA6A32355ED ====


cue
REM GENRE "Heavy Metal"
REM DATE 2002
REM DISCID 5507B907
REM COMMENT "ExactAudioCopy v1.0b1"
PERFORMER "Vyndykator"
TITLE "Heaven Sent From Hell"
FILE "Vyndykator - Heaven Sent From Hell.flac" WAVE
TRACK 01 AUDIO
TITLE "Eternal Rest"
PERFORMER "Vyndykator"
INDEX 01 00:00:00
TRACK 02 AUDIO
TITLE "Bloddstained Gallows"
PERFORMER "Vyndykator"
INDEX 01 02:18:16
TRACK 03 AUDIO
TITLE "Rot In The Chamber"
PERFORMER "Vyndykator"
INDEX 00 09:02:36
INDEX 01 09:04:36
TRACK 04 AUDIO
TITLE "Tapping The Vain"
PERFORMER "Vyndykator"
INDEX 00 13:06:32
INDEX 01 13:08:32
TRACK 05 AUDIO
TITLE "Mr. Murder"
PERFORMER "Vyndykator"
INDEX 00 18:28:16
INDEX 01 18:30:16
TRACK 06 AUDIO
TITLE "Flight Of The Wombat"
PERFORMER "Vyndykator"
INDEX 00 25:34:12
INDEX 01 25:36:12
TRACK 07 AUDIO
TITLE "Deceiver"
PERFORMER "Vyndykator"
INDEX 01 29:47:01


spectrum
Image




ImageImageImageImage

phpBB [youtube]

_________________


Top
 Profile E-mail  
 
 
PostPosted: 18 Jun 2013 
Рарник и трушник
User avatar
Joined: 25 Dec 2009
Posts: 6450
Lоcаtion: Москва
Age: 52
Name: Виталий
Спасибо, скачаю обязательно! :true:
А вокалист-то из Attacker - Bob Mitchell - vocals


Top
 Profile  
 
 
PostPosted: 18 Jun 2013 
Хиппей (support team)
User avatar
Joined: 30 Jul 2007
Posts: 92233
Lоcаtion: Киев (Kyiv, UA)
Age: 44
Name: Andrey
Ага. Но здесь он уже поёт не так хорошо :fingal:

_________________


Top
 Profile E-mail  
 
Display posts from previous:  Sort by  
Post new topic Reply to topic  [ 3 posts ] 

All times are UTC + 3 hours


Who is online

Users browsing this forum: No registered users and 1 guest


You cannot post new topics in this forum
You cannot reply to topics in this forum
You cannot edit your posts in this forum
You cannot delete your posts in this forum
You cannot post attachments in this forum

Search for:
Яндекс.Метрика
Powered by phpBB © 2000, 2002, 2005, 2007 phpBB Group