\m/ 80's metal \m/

Информационно-аналитический форум "80 см пыли" (In Search We Trust) "У нас никто никуда не спешит"
Железнодорожная биржа - RailAgent
It is currently 19 Nov 2017

All times are UTC + 3 hours

Spoiler
Chat - temporary registration for foreign users (please leave your application here)







Post new topic Reply to topic  [ 14 posts ] 
Author Message
 
PostPosted: 13 Feb 2013 
А может смените мне статус?..
User avatar
Joined: 22 Nov 2008
Posts: 957
Lоcаtion: Schelcovo,Russia
Age: 46
Name: Сергей
Image

Image

Veto - Carthago (Reissue 1990 Laserlight)

01. Riders on the Loose
02. Unknown Soldier
03. Mean Mistreater
04. Carthago
05. Desert Kings
06. Searching on
07. Trust Your Heart
08. Burning
09. Choose Your Way
10. Sarabande (instrumental)

"log"
Отчёт EAC об извлечении, выполненном 14. февраля 2013, 18:42 для диска:
Veto / Carthago

Дисковод: HL-DT-STDVDRAM GT32N Adapter: 0 ID: 1
Режим чтения: Скоростной
Коррекция смещения при чтении: 0
Способность читать области Lead-in и Lead-out : Нет

Выходной формат: Внутренние WAV-операции
44.100 Гц; 16 бит; стерео

Другие параметры:
Заполнение пропущенных сэмплов тишиной : Да
Удаление блоков с тишиной в начале и конце : Нет
Установленный внешний ASPI-интерфейс


Характеристики диапазона извлечения и сообщения об ошибках
Выбранный диапазон
Имя файла C:\Users\Сергей\Music\Veto - Carthago.wav

Пиковый уровень 99.9 %
CRC 0DB42A4B
Копирование... OK

Ошибок не произошло

Конец отчёта

"cue"
REM GENRE "Heavy Metal"
REM DATE 1990
REM DISCID 8A08FE0A
REM COMMENT "ExactAudioCopy v0.95b4"
PERFORMER "Veto"
TITLE "Carthago"
FILE "Veto - Carthago.wav" WAVE
TRACK 01 AUDIO
TITLE "01. Riders on the Loose (04:24)"
PERFORMER "Veto"
INDEX 00 00:00:00
INDEX 01 00:00:33
TRACK 02 AUDIO
TITLE "02. Unknown Soldier (03:31)"
PERFORMER "Veto"
INDEX 00 04:21:63
INDEX 01 04:23:18
TRACK 03 AUDIO
TITLE "03. Mean Mistreater (04:15)"
PERFORMER "Veto"
INDEX 00 07:52:28
INDEX 01 07:53:60
TRACK 04 AUDIO
TITLE "04. Carthago (06:58)"
PERFORMER "Veto"
INDEX 01 12:08:63
TRACK 05 AUDIO
TITLE "05. Desert Kings (03:30)"
PERFORMER "Veto"
INDEX 00 19:02:69
INDEX 01 19:05:63
TRACK 06 AUDIO
TITLE "06. Searching on (03:50)"
PERFORMER "Veto"
INDEX 00 22:35:43
INDEX 01 22:36:00
TRACK 07 AUDIO
TITLE "07. Trust Your Heart (04:15)"
PERFORMER "Veto"
INDEX 00 26:23:66
INDEX 01 26:25:33
TRACK 08 AUDIO
TITLE "08. Burning (03:48)"
PERFORMER "Veto"
INDEX 00 28:34:47
INDEX 01 30:39:43
TRACK 09 AUDIO
TITLE "09. Choose Your Way (03:27)"
PERFORMER "Veto"
INDEX 00 34:25:38
INDEX 01 34:26:68
TRACK 10 AUDIO
TITLE "10. Sarabande (instrumental) (00:29)"
PERFORMER "Veto"
INDEX 00 37:49:48
INDEX 01 37:53:13

spectrum
Image


Один из вариантов оформления.

:losik:

:esel:


Last edited by snider1971 on 14 Feb 2013, edited 2 times in total.

Top
 Profile  
 
 
PostPosted: 14 Feb 2013 
Хиппей (support team)
User avatar
Joined: 30 Jul 2007
Posts: 95697
Lоcаtion: Киев (Kyiv, UA)
Age: 44
Name: Andrey
:thanx:

_________________


Top
 Profile E-mail  
 
 
PostPosted: 14 Feb 2013 
Хиппей (support team)
User avatar
Joined: 30 Jul 2007
Posts: 95697
Lоcаtion: Киев (Kyiv, UA)
Age: 44
Name: Andrey
Красота :true: :true: :true:
Отличный звук, ну и отличный альбом, если кто ранее не слушал :meloman:

8/10

_________________


Top
 Profile E-mail  
 
 
PostPosted: 14 Feb 2013 
Хиппей (support team)
User avatar
Joined: 30 Jul 2007
Posts: 95697
Lоcаtion: Киев (Kyiv, UA)
Age: 44
Name: Andrey
Ээм... это только мне показалось, что в куе неправильно время трэков прописаны? :oops:

_________________


Top
 Profile E-mail  
 
 
PostPosted: 14 Feb 2013 
Хиппей (support team)
User avatar
Joined: 30 Jul 2007
Posts: 95697
Lоcаtion: Киев (Kyiv, UA)
Age: 44
Name: Andrey
Ага, всё отлично. Это мне всего лишь показалось :pardon:

Еще раз спасибо за рип - балдю :meloman: :meloman: :meloman:

_________________


Top
 Profile E-mail  
 
 
PostPosted: 14 Feb 2013 
Хиппей (support team)
User avatar
Joined: 30 Jul 2007
Posts: 95697
Lоcаtion: Киев (Kyiv, UA)
Age: 44
Name: Andrey
Эээ... и все же 6-й трэк обрывается :fingal:
Почему-то :vic:

_________________


Top
 Profile E-mail  
 
 
PostPosted: 14 Feb 2013 
А может смените мне статус?..
User avatar
Joined: 22 Nov 2008
Posts: 957
Lоcаtion: Schelcovo,Russia
Age: 46
Name: Сергей
ща проверю все... :shok:


Top
 Profile  
 
 
PostPosted: 14 Feb 2013 
Хиппей (support team)
User avatar
Joined: 30 Jul 2007
Posts: 95697
Lоcаtion: Киев (Kyiv, UA)
Age: 44
Name: Andrey
Серёг, мож я криво слушал, но в первый раз заметил, что трэк обрывается. А затем два раза - нет. Сейчас слушаю и через куй и файл - всё равно обрывается трэк.
Еще вчера хотел спросить, а точно ли это тот самый лазердисковский вариант с косяком, но чето тебя не хотел смущать :oops:

Quote:
TRACK 06 AUDIO
TITLE "06. Searching on (03:50)"
PERFORMER "Veto"
INDEX 00 22:35:43
INDEX 01 22:36:00

:scratch:

_________________


Top
 Profile E-mail  
 
 
PostPosted: 14 Feb 2013 
А может смените мне статус?..
User avatar
Joined: 22 Nov 2008
Posts: 957
Lоcаtion: Schelcovo,Russia
Age: 46
Name: Сергей
Диск нормальный,ща всё исправлю!


Top
 Profile  
 
 
PostPosted: 14 Feb 2013 
А может смените мне статус?..
User avatar
Joined: 22 Nov 2008
Posts: 957
Lоcаtion: Schelcovo,Russia
Age: 46
Name: Сергей
Всё,исправил! :pardon:


Top
 Profile  
 
 
PostPosted: 14 Feb 2013 
Хиппей (support team)
User avatar
Joined: 30 Jul 2007
Posts: 95697
Lоcаtion: Киев (Kyiv, UA)
Age: 44
Name: Andrey
Уря! Спасибо :thanx:

_________________


Top
 Profile E-mail  
 
 
PostPosted: 19 Feb 2013 
Хиппей (support team)
User avatar
Joined: 30 Jul 2007
Posts: 95697
Lоcаtion: Киев (Kyiv, UA)
Age: 44
Name: Andrey
mirror: MultiUp l Narod

snider1971 wrote:
Диск нормальный,ща всё исправлю!

Хм, Серёг, а как такое могло произойти - дисковод отрубился во время рипа? :vic:

_________________


Top
 Profile E-mail  
 
 
PostPosted: 21 Feb 2013 
А может смените мне статус?..
User avatar
Joined: 22 Nov 2008
Posts: 957
Lоcаtion: Schelcovo,Russia
Age: 46
Name: Сергей
mirror: MultiUp l Narod

snider1971 wrote:
Диск нормальный,ща всё исправлю!

Хм, Серёг, а как такое могло произойти - дисковод отрубился во время рипа? :vic:


Я параллельно играл в WOT :tank: , мож снарядик отлетел рикошетом :fingal:


Top
 Profile  
 
 
PostPosted: 22 Feb 2013 
Хиппей (support team)
User avatar
Joined: 30 Jul 2007
Posts: 95697
Lоcаtion: Киев (Kyiv, UA)
Age: 44
Name: Andrey
snider1971 wrote:
Я параллельно играл в WOT

:crazy: :nunu: :kz: :kz: :kz:

_________________


Top
 Profile E-mail  
 
Display posts from previous:  Sort by  
Post new topic Reply to topic  [ 14 posts ] 

All times are UTC + 3 hours


Who is online

Users browsing this forum: No registered users and 2 guests


You cannot post new topics in this forum
You cannot reply to topics in this forum
You cannot edit your posts in this forum
You cannot delete your posts in this forum
You cannot post attachments in this forum

Search for:
Яндекс.Метрика
cron
Powered by phpBB © 2000, 2002, 2005, 2007 phpBB Group