\m/ 80's metal \m/

Информационно-аналитический форум "80 см пыли" (In Search We Trust) "У нас никто никуда не спешит"
Железнодорожная биржа - RailAgent
It is currently 23 Nov 2017

All times are UTC + 3 hours

Spoiler
Chat - temporary registration for foreign users (please leave your application here)







Post new topic Reply to topic  [ 19 posts ] 
Author Message
 
PostPosted: 06 Jan 2013 
Персональный статус
Joined: 15 Nov 2008
Posts: 285
Lоcаtion: прага
Age: 47
Name: .сергей
Ищу lossless клевой команды Vamp, хотелось бы 'delux edition' и книжку :true:

Vamp - 1989 - The Rich Don't Rock

Image

covers | +
Image Image

Label: Atlantic rec.
Cat#: 781 974-2

01. Heartbreak, Heartache
02. Like I Want
03. The Rich Don't Rock
04. Love Games
05. Renegade
06. All Nite
07. Lonely Nights
08. Stand by Me
09. Bleeding
10. Talk Is Cheap
11. Shout
12. Why

Офсайт: http://vamp-rock.com/
Доп. информация: здесь


Last edited by grin on 06 Jan 2013, edited 1 time in total.

Top
 Profile  
 
 
PostPosted: 06 Jan 2013 
Хиппей (support team)
User avatar
Joined: 30 Jul 2007
Posts: 95845
Lоcаtion: Киев (Kyiv, UA)
Age: 44
Name: Andrey
Вы шо, блин, все айпеды понакупали в новом году? :crazy:

Срочно переделать запрос по правилам. Иначе ж фигня получилась и с боку фостик :esel:

_________________


Top
 Profile E-mail  
 
 
PostPosted: 06 Jan 2013 
Персональный статус
Joined: 15 Nov 2008
Posts: 285
Lоcаtion: прага
Age: 47
Name: .сергей
ANDRUCH ja ze zivy v chechii u menya windows anglijskij.poatomu pishu na basurmanskom :pardon: .prieszhaj kstati v gosti v pragu.za nepravilnoe oformlenie izvini,ti zhe znaes menya-TEMNOTA. :dash: :dash: :dash:


Last edited by grin on 07 Jan 2013, edited 1 time in total.

Top
 Profile  
 
 
PostPosted: 07 Jan 2013 
Хиппей (support team)
User avatar
Joined: 30 Jul 2007
Posts: 95845
Lоcаtion: Киев (Kyiv, UA)
Age: 44
Name: Andrey
serij ja ze zivy v chechii u menya windows anglijskij.poatomu pishu na basurmanskom :pardon: .prieszhaj kstati v gosti v pragu.za nepravilnoe oformlenie izvini,ti zhe znaes menya-TEMNOTA. :dash: :dash: :dash:

Спасибо. Приглашение Серому передал :crazy:

А пока от так хотя бы: http://russian.keyboard.su

_________________


Top
 Profile E-mail  
 
 
PostPosted: 07 Jan 2013 
Персональный статус
Joined: 15 Nov 2008
Posts: 285
Lоcаtion: прага
Age: 47
Name: .сергей
andruch prosti starogo sklerotika. :esel: :esel: :esel:


Top
 Profile  
 
 
PostPosted: 07 Jan 2013 
Хиппей (support team)
User avatar
Joined: 30 Jul 2007
Posts: 95845
Lоcаtion: Киев (Kyiv, UA)
Age: 44
Name: Andrey
grin wrote:
Возраст: 36

:vic:

_________________


Top
 Profile E-mail  
 
 
PostPosted: 07 Jan 2013 
Персональный статус
Joined: 15 Nov 2008
Posts: 285
Lоcаtion: прага
Age: 47
Name: .сергей
42 :cry:


Top
 Profile  
 
 
PostPosted: 07 Jan 2013 
Хиппей (support team)
User avatar
Joined: 30 Jul 2007
Posts: 95845
Lоcаtion: Киев (Kyiv, UA)
Age: 44
Name: Andrey
:shok: ...как же резко подрос мальчег то :true:

_________________


Top
 Profile E-mail  
 
 
PostPosted: 07 Jan 2013 
Персональный статус
Joined: 15 Nov 2008
Posts: 285
Lоcаtion: прага
Age: 47
Name: .сергей
da pri registracii navernoe vtoropyach nachimicil.takk est u kogo Vamp tovarishi-metallisti?


Top
 Profile  
 
 
PostPosted: 07 Jan 2013 
Персональный статус
Joined: 02 Apr 2010
Posts: 223
Name: Андрей
Зачем создавать запросы на то, что и так нетрудно найти? :crazy:
Vamp - the rich don't rock :losik: : http://rutracker.org/forum/viewtopic.php?t=3308647


Top
 Profile  
 
 
PostPosted: 07 Jan 2013 
Персональный статус
Joined: 15 Nov 2008
Posts: 285
Lоcаtion: прага
Age: 47
Name: .сергей
ya ne mogu ottuda skachat.nu i chotelos bi Delux edition.tam 2 disk s demkami.


Top
 Profile  
 
 
PostPosted: 07 Jan 2013 
Персональный статус
Joined: 02 Apr 2010
Posts: 223
Name: Андрей
Ну в таком случае вам едва ли тут кто нить поможет, раз нужно именно Delux edition, то вперёд и с песней на Амазон, стоит диск недорого и купить его не проблема.


Top
 Profile  
 
 
PostPosted: 07 Jan 2013 
Персональный статус
Joined: 15 Nov 2008
Posts: 285
Lоcаtion: прага
Age: 47
Name: .сергей
spasibo i na atom.poprobuu zakazat.no mozhet kto skachival lossless obichnogo vamp?zalejte esli ne trudno.grupa ved ochen choroshaya.


Top
 Profile  
 
 
PostPosted: 07 Jan 2013 
Персональный статус
Joined: 02 Apr 2010
Posts: 223
Name: Андрей
no mozhet kto skachival lossless obichnogo vamp?zalejte esli ne trudno.


:losik: http://rusfolder.com/34413115 :losik:


Top
 Profile  
 
 
PostPosted: 07 Jan 2013 
Персональный статус
Joined: 15 Nov 2008
Posts: 285
Lоcаtion: прага
Age: 47
Name: .сергей
spasibo za otzivchivost.s rozhdestvom!


Top
 Profile  
 
 
PostPosted: 08 Jan 2013 
консэрваторъ
Joined: 11 Aug 2007
Posts: 14281
Lоcаtion: Псков
Age: 43
Name: Сергей
Андрей, спасибо за перелив! Ту Серёга из Праги -> Я сейчас оформлю твой запрос (первый пост в этой теме) как он должен быть здесь с минимальными требованиями... Но Серёг, если на будущее внимательно не изучишь, как это делается, то пеняй на себя... :dash:
И учти, что тема осталась в этом разделе только благодаря Андрею, что он перелил альбумий... Ничего личного... :true: И кстати, запросы легко находимые в сети, у нас тоже уходят на ДП...

И ещё такой момент... ВАЖНО!!! Взгляни на "жёлтую простыню", там в правилах есть фраза: Заказывать альбомы 2011/2012 г запрещено!
Поэтому, к сожалению, твой запрос по делюкс переизданию у нас выполнен быть не может, т.к. релиз от 8 января 2013 г.!!!

_________________
THRASH 'EM ALL


Top
 Profile E-mail  
 
 
PostPosted: 08 Jan 2013 
Персональный статус
Joined: 15 Nov 2008
Posts: 285
Lоcаtion: прага
Age: 47
Name: .сергей
zdorovo.poprobuu razobratsya povnimatelnej kak postit.prosto rabotau po 12 chasov v den na fabrike,vzdrochnut nekogda :benya: .a relizom ot 8 janvarya ja lochanulsya :fingal: andrej spasibo za pereliv :true: .


Top
 Profile  
 
 
PostPosted: 18 Jul 2013 
Хиппей (support team)
User avatar
Joined: 30 Jul 2007
Posts: 95845
Lоcаtion: Киев (Kyiv, UA)
Age: 44
Name: Andrey
О... и в эту тему я опоздал =)

Пойду качну лося торрентом :pardon:

_________________


Top
 Profile E-mail  
 
 
PostPosted: 18 Jul 2013 
Хиппей (support team)
User avatar
Joined: 30 Jul 2007
Posts: 95845
Lоcаtion: Киев (Kyiv, UA)
Age: 44
Name: Andrey
Vamp - [Ger] - 1989 - The Rich Dont Rock [ape]

ImageImage

mirror: F-Bit l Narod

Пардон, но это... фигня какая-то :crazy:

На первых 4-й трэках вокал такой что хочется его немного отдубасить. Давненько я такого манерного фальцета не слышал :esel:
А вот с 5-й вещи голос стал уже более-менее. Или это я к нему привык, или... другой вокалист исполняет :shok:
Альбом хорош. Hard Rock/Glam с завитушками, но цуко-вокал местами всё портит.
Запомните эту фразу раза три - "местами всё портит" :dance:

4/10

log
Exact Audio Copy V0.99 prebeta 4 from 23. January 2008

EAC extraction logfile from 10. December 2010, 22:23

Vamp / The Rich Don't Rock

Used drive : PIONEER DVD-RW DVR-212 Adapter: 5 ID: 0

Read mode : Secure
Utilize accurate stream : Yes
Defeat audio cache : Yes
Make use of C2 pointers : No

Read offset correction : 48
Overread into Lead-In and Lead-Out : No
Fill up missing offset samples with silence : Yes
Delete leading and trailing silent blocks : No
Null samples used in CRC calculations : Yes
Used interface : Native Win32 interface for Win NT & 2000

Used output format : Internal WAV Routines
Sample format : 44.100 Hz; 16 Bit; Stereo


TOC of the extracted CD

Track | Start | Length | Start sector | End sector
---------------------------------------------------------
1 | 0:00.32 | 4:14.58 | 32 | 19139
2 | 4:15.15 | 2:42.50 | 19140 | 31339
3 | 6:57.65 | 3:43.00 | 31340 | 48064
4 | 10:40.65 | 3:02.27 | 48065 | 61741
5 | 13:43.17 | 4:29.23 | 61742 | 81939
6 | 18:12.40 | 5:04.62 | 81940 | 104801
7 | 23:17.27 | 3:28.00 | 104802 | 120401
8 | 26:45.27 | 4:51.65 | 120402 | 142291
9 | 31:37.17 | 3:04.00 | 142292 | 156091
10 | 34:41.17 | 4:31.53 | 156092 | 176469
11 | 39:12.70 | 4:00.72 | 176470 | 194541
12 | 43:13.67 | 4:38.15 | 194542 | 215406


Range status and errors

Selected range

Filename D:\temp\Vamp - The Rich Don't Rock.wav

Peak level 100.0 %
Range quality 100.0 %
Copy CRC 60211F11
Copy OK

No errors occurred


AccurateRip summary

Track 1 accurately ripped (confidence 1) [7BDCC6A7]
Track 2 accurately ripped (confidence 1) [575A277D]
Track 3 accurately ripped (confidence 1) [3FD2B684]
Track 4 accurately ripped (confidence 1) [5CF11802]
Track 5 accurately ripped (confidence 1) [7023C5F9]
Track 6 accurately ripped (confidence 1) [EADD9B88]
Track 7 accurately ripped (confidence 1) [B0AA6AAC]
Track 8 accurately ripped (confidence 1) [3B0A2CB5]
Track 9 accurately ripped (confidence 1) [089FA508]
Track 10 accurately ripped (confidence 1) [BFEFB475]
Track 11 accurately ripped (confidence 1) [8A94C271]
Track 12 accurately ripped (confidence 1) [2053E789]

All tracks accurately ripped

End of status report

cue
REM GENRE "Hard Rock"
REM DATE 1989
REM DISCID B60B380C
REM COMMENT "ExactAudioCopy v0.99pb4"
CATALOG 0075678197420
PERFORMER "Vamp"
TITLE "The Rich Don't Rock"
FILE "Vamp - The Rich Don't Rock.ape" WAVE
TRACK 01 AUDIO
TITLE "Heartbreak, Heartache"
PERFORMER "Vamp"
INDEX 00 00:00:00
INDEX 01 00:00:32
TRACK 02 AUDIO
TITLE "Like I Want"
PERFORMER "Vamp"
INDEX 00 04:14:27
INDEX 01 04:15:15
TRACK 03 AUDIO
TITLE "The Rich Don't Rock"
PERFORMER "Vamp"
INDEX 00 06:57:02
INDEX 01 06:57:65
TRACK 04 AUDIO
TITLE "Love Games"
PERFORMER "Vamp"
INDEX 00 10:40:32
INDEX 01 10:40:65
TRACK 05 AUDIO
TITLE "Renegade"
PERFORMER "Vamp"
INDEX 00 13:42:50
INDEX 01 13:43:17
TRACK 06 AUDIO
TITLE "All Nite"
PERFORMER "Vamp"
INDEX 00 18:11:62
INDEX 01 18:12:40
TRACK 07 AUDIO
TITLE "Lonely Nights"
PERFORMER "Vamp"
INDEX 00 23:16:35
INDEX 01 23:17:27
TRACK 08 AUDIO
TITLE "Stand By Me"
PERFORMER "Vamp"
INDEX 00 26:45:07
INDEX 01 26:45:27
TRACK 09 AUDIO
TITLE "Bleeding"
PERFORMER "Vamp"
INDEX 00 31:36:57
INDEX 01 31:37:17
TRACK 10 AUDIO
TITLE "Talk Is Cheap"
PERFORMER "Vamp"
INDEX 00 34:39:42
INDEX 01 34:41:17
TRACK 11 AUDIO
TITLE "Shout"
PERFORMER "Vamp"
INDEX 00 39:12:37
INDEX 01 39:12:70
TRACK 12 AUDIO
TITLE "Why"
PERFORMER "Vamp"
INDEX 00 43:12:32
INDEX 01 43:13:67

_________________


Top
 Profile E-mail  
 
Display posts from previous:  Sort by  
Post new topic Reply to topic  [ 19 posts ] 

All times are UTC + 3 hours


Who is online

Users browsing this forum: No registered users and 1 guest


You cannot post new topics in this forum
You cannot reply to topics in this forum
You cannot edit your posts in this forum
You cannot delete your posts in this forum
You cannot post attachments in this forum

Search for:
Яндекс.Метрика
Powered by phpBB © 2000, 2002, 2005, 2007 phpBB Group