\m/ 80's metal \m/
http://80metal.com/

Veto - Veto (1986)
http://80metal.com/viewtopic.php?f=195&t=11050
Page 1 of 1

Author:  slayer19 [ 23 Oct 2012 ]
Post subject:  Veto - Veto (1986)

Image

Исполнитель: Veto
Альбом: Veto
Жанр: Heavy/Speed Metal
Страна: Germany (Augsburg, Bavaria)
Формат Аудио: FLAC (Cue/Log/Image)+ All Scans
Продолжительность Звучания Альбома: 00:32:09
Размер Архива: 259 Mb (+ 3% recovery)
Источник (релизер): slayer19

Треклист:

1. Veto (03:59)
2. Metal Servants (03:54)
3. Rough Child (03:17)
4. Born to Ride (04:01)
5. Ultimatum (04:09)
6. Brainburst (04:02)
7. Hard as Steel (04:11)
8. Join the Band (04:36)

"Лог создания рипа"
Exact Audio Copy V1.0 beta 3 from 29. August 2011

Отчёт EAC об извлечении, выполненном 23. октября 2012, 13:35

Veto / Veto

Дисковод: Optiarc DVD RW AD-7200A Adapter: 0 ID: 0

Режим чтения : Достоверность
Использование точного потока : Да
Отключение кэша аудио : Да
Использование указателей C2 : Нет

Коррекция смещения при чтении : 48
Способность читать области Lead-in и Lead-out : Нет
Заполнение пропущенных сэмплов тишиной : Да
Удаление блоков с тишиной в начале и конце : Нет
При вычислениях CRC использовались нулевые сэмплы : Да
Интерфейс : Встроенный Win32-интерфейс для Win NT/2000

Выходной формат : Пользовательский кодировщик
Выбранный битрейт : 128 kBit/s
Качество : Высокий
Добавление ID3-тега : Нет
Утилита сжатия : C:\Program Files\FLAC\FLAC frontend.exe

TOC извлечённого CD

Трек | Старт | Длительность | Начальный сектор | Конечный сектор
---------------------------------------------------------------------
1 | 0:00.00 | 3:58.55 | 0 | 17904
2 | 3:58.55 | 3:53.60 | 17905 | 35439
3 | 7:52.40 | 3:16.50 | 35440 | 50189
4 | 11:09.15 | 4:00.72 | 50190 | 68261
5 | 15:10.12 | 4:09.15 | 68262 | 86951
6 | 19:19.27 | 4:02.30 | 86952 | 105131
7 | 23:21.57 | 4:10.63 | 105132 | 123944
8 | 27:32.45 | 4:36.30 | 123945 | 144674

Характеристики диапазона извлечения и сообщения об ошибках

Выбранный диапазон

Имя файла D:\МОИ ФАЙЛЫ\LOSSLESS\slayer19\Veto - Veto.wav

Пиковый уровень 98.8 %
Скорость извлечения 3.6 X
Качество диапазона 100.0 %
CRC теста 2C9F889A
CRC копии 2C9F889A
Копирование... OK

Ошибок не произошло

AccurateRip: сводка

Трек 1 отсутствует в базе данных
Трек 2 отсутствует в базе данных
Трек 3 отсутствует в базе данных
Трек 4 отсутствует в базе данных
Трек 5 отсутствует в базе данных
Трек 6 отсутствует в базе данных
Трек 7 отсутствует в базе данных
Трек 8 отсутствует в базе данных

Ни одного трека нет в базе AccurateRip

Конец отчёта

---- CUETools DB Plugin V2.1.3

[CTDB TOCID: XfDDfmwmCgg_alHZgeo2D9txiN4-] disk not present in database, Submit result: XfDDfmwmCgg_alHZgeo2D9txiN4- has been uploaded

==== Контрольная сумма отчёта 7D837EE354AAF444ADC7352323F28B0EEBAF1DBEB374FAEDACCE53B380DCA68E ====

"Фото"
Image


Скачать: Veto - Veto (1986) by slayer19.rar

Author:  Entomologist [ 23 Oct 2012 ]
Post subject:  Re: Veto - Veto (1986)

:thanx: Cпасибо Вячеслав большое :true:

Author:  Вася_металлист_2012 [ 23 Oct 2012 ]
Post subject:  Re: Veto - Veto (1986)

***

Author:  Privateer [ 23 Oct 2012 ]
Post subject:  Re: Veto - Veto (1986)

Да, это крутой лот! :true: Спасибо большое! :thanx:

Author:  EG Power [ 23 Oct 2012 ]
Post subject:  Re: Veto - Veto (1986)

:thanx:

Author:  Diamond [ 24 Oct 2012 ]
Post subject:  Re: Veto - Veto (1986)

:thanx:

Author:  slayer19 [ 24 Oct 2012 ]
Post subject:  Re: Veto - Veto (1986)

Всем пожалуйста! :drink:

Author:  MetallicAS [ 24 Oct 2012 ]
Post subject:  Re: Veto - Veto (1986)

Слава Славе!!! :thanx: :true: :true: :true:

Author:  Вася_металлист_2012 [ 24 Oct 2012 ]
Post subject:  Re: Veto - Veto (1986)

***

Author:  Sergey [ 28 Oct 2012 ]
Post subject:  Re: Veto - Veto (1986)

Большущее спасибо! :thanx:

Author:  sorog [ 12 Nov 2012 ]
Post subject:  Re: Veto - Veto (1986)

:thanx:

Author:  slayer19 [ 12 Nov 2012 ]
Post subject:  Re: Veto - Veto (1986)

Сергеи пожалуйста! :drink:

Author:  overkiller [ 02 Dec 2012 ]
Post subject:  Re: Veto - Veto (1986)

обалденная группа
спасибо Славик :meloman:

Author:  Scatterbrain [ 02 Dec 2012 ]
Post subject:  Re: Veto - Veto (1986)

:thanx:

mirror: F-Bit l Narod

По зазорам что-то кто-то еще проверял? :umnik:

Author:  Everhard [ 12 Oct 2013 ]
Post subject:  Re: Veto - Veto (1986)

slayer19, :thanx:

Page 1 of 1 All times are UTC + 3 hours
Powered by phpBB © 2000, 2002, 2005, 2007 phpBB Group
http://www.phpbb.com/