\m/ 80's metal \m/

Информационно-аналитический форум "80 см пыли" (In Search We Trust) "У нас никто никуда не спешит"
Железнодорожная биржа - RailAgent
It is currently 13 Dec 2017

All times are UTC + 3 hours

Spoiler
Chat - temporary registration for foreign users (please leave your application here)







Post new topic Reply to topic  [ 9 posts ] 
Author Message
 
PostPosted: 23 Oct 2012 
А может смените мне статус?..
User avatar
Joined: 24 Sep 2012
Posts: 856
Lоcаtion: Нижегородская обл.
Age: 47
Name: Вячеслав
Image

Исполнитель: Veto
Альбом: Carthago
Жанр: Heavy/Speed Metal
Страна: Germany (Augsburg, Bavaria)
Формат Аудио: FLAC (Cue/Log/Image)+ All Scans
Продолжительность Звучания Альбома: 00:38:26
Размер Архива: 268 Mb (+ 3% recovery)
Источник (релизер): slayer19

Треклист:

01. Riders on the Loose (04:24)
02. Unknown Soldier (03:31)
03. Mean Mistreater (04:15)
04. Carthago (06:58)
05. Desert Kings (03:30)
06. Searching on (03:50)
07. Trust Your Heart (04:15)
08. Burning (03:48)
09. Choose Your Way (03:27)
10. Sarabande (instrumental) (00:29)

"Лог создания рипа"
Exact Audio Copy V1.0 beta 3 from 29. August 2011

Отчёт EAC об извлечении, выполненном 22. октября 2012, 22:08

Veto / Carthago

Дисковод: Optiarc DVD RW AD-7200A Adapter: 0 ID: 0

Режим чтения : Достоверность
Использование точного потока : Да
Отключение кэша аудио : Да
Использование указателей C2 : Нет

Коррекция смещения при чтении : 48
Способность читать области Lead-in и Lead-out : Нет
Заполнение пропущенных сэмплов тишиной : Да
Удаление блоков с тишиной в начале и конце : Нет
При вычислениях CRC использовались нулевые сэмплы : Да
Интерфейс : Встроенный Win32-интерфейс для Win NT/2000

Выходной формат : Пользовательский кодировщик
Выбранный битрейт : 128 kBit/s
Качество : Высокий
Добавление ID3-тега : Нет
Утилита сжатия : C:\Program Files\FLAC\FLAC frontend.exe

TOC извлечённого CD

Трек | Старт | Длительность | Начальный сектор | Конечный сектор
---------------------------------------------------------------------
1 | 0:00.32 | 4:23.40 | 32 | 19796
2 | 4:23.72 | 3:30.73 | 19797 | 35619
3 | 7:54.70 | 4:15.17 | 35620 | 54761
4 | 12:10.12 | 6:58.00 | 54762 | 86111
5 | 19:08.12 | 3:30.35 | 86112 | 101896
6 | 22:38.47 | 3:49.65 | 101897 | 119136
7 | 26:28.37 | 4:14.38 | 119137 | 138224
8 | 30:43.00 | 3:47.42 | 138225 | 155291
9 | 34:30.42 | 3:26.48 | 155292 | 170789
10 | 37:57.15 | 0:28.60 | 170790 | 172949

Характеристики диапазона извлечения и сообщения об ошибках

Выбранный диапазон

Имя файла D:\МОИ ФАЙЛЫ\LOSSLESS\slayer19\Veto - Carthago.wav

Пиковый уровень 90.9 %
Скорость извлечения 3.5 X
Качество диапазона 100.0 %
CRC теста E304EA23
CRC копии E304EA23
Копирование... OK

Ошибок не произошло

AccurateRip: сводка

Трек 1 отсутствует в базе данных
Трек 2 отсутствует в базе данных
Трек 3 отсутствует в базе данных
Трек 4 отсутствует в базе данных
Трек 5 отсутствует в базе данных
Трек 6 отсутствует в базе данных
Трек 7 отсутствует в базе данных
Трек 8 отсутствует в базе данных
Трек 9 отсутствует в базе данных
Трек 10 отсутствует в базе данных

Ни одного трека нет в базе AccurateRip

Конец отчёта

---- CUETools DB Plugin V2.1.3

[CTDB TOCID: z6s9_awL9y.fA4yU62c_Do68UGA-] database access error: There is an error in XML document (1, 1).

==== Контрольная сумма отчёта CE4C012DADD85BEDB824F2BB73C1C78AF3394CB6F406B3D64B1409BBF96665A5 ====

"Фото"
Image


Скачать: Veto - Carthago (1988) by slayer19.rar

_________________
Image


Top
 Profile E-mail  
 
 
PostPosted: 23 Oct 2012 
Анатолий
User avatar
Joined: 18 Oct 2008
Posts: 2736
Lоcаtion: Армавир
Age: 40
Name: Анатолий
Ох ты какая картинка! Впервые такую вижу в оформлении альбома.


Top
 Profile E-mail  
 
 
PostPosted: 23 Oct 2012 
Доктор энтомологии
User avatar
Joined: 22 Jan 2009
Posts: 8525
Lоcаtion: Даугавпилс
Age: 42
Name: Алексей
:thanx:


Top
 Profile  
 
 
PostPosted: 23 Oct 2012 
Power Metal Maniac
User avatar
Joined: 09 Aug 2008
Posts: 5922
Lоcаtion: Москва
Age: 39
Name: Егор
:thanx:

_________________
Long Live Metal!


Top
 Profile  
 
 
PostPosted: 24 Oct 2012 
А может смените мне статус?..
User avatar
Joined: 24 Sep 2012
Posts: 856
Lоcаtion: Нижегородская обл.
Age: 47
Name: Вячеслав
Всем пожалуйста! :drink:

_________________
Image


Top
 Profile E-mail  
 
 
PostPosted: 24 Oct 2012 
ТрэшЭрос
User avatar
Joined: 18 Jul 2011
Posts: 2292
Lоcаtion: Гулькевичи
Age: 42
Name: Александр
:thanx: и :true: и :dance: и :drink:

_________________
Thrash no trash!!!


Top
 Profile E-mail  
 
 
PostPosted: 28 Oct 2012 
Почётный металлург
User avatar
Joined: 15 Sep 2007
Posts: 4357
Lоcаtion: Хабаровск
Age: 57
Name: чуть выше
Большущее спасибо! :thanx:

_________________
Коль будешь людей ты ослами честить,
тебе человеком меж них не прослыть!
(Саади, персидский поэт, 13в.)


Top
 Profile  
 
 
PostPosted: 02 Dec 2012 
А может смените мне статус?..
User avatar
Joined: 02 Feb 2009
Posts: 974
Lоcаtion: из Тулы
Age: 43
Name: Максим
спасибо Слав
отличная музыка
слушал, аж мурашки бегали
и кипяток потек кое откуда

_________________
КМА


Top
 Profile  
 
 
PostPosted: 02 Dec 2012 
Хиппей (support team)
User avatar
Joined: 30 Jul 2007
Posts: 96993
Lоcаtion: Киев (Kyiv, UA)
Age: 44
Name: Andrey
Кста, а я только эту обложку видел... :oops:

Спасибо, Слав! :thanx:

mirror: F-Bit l Narod

_________________


Top
 Profile E-mail  
 
Display posts from previous:  Sort by  
Post new topic Reply to topic  [ 9 posts ] 

All times are UTC + 3 hours


Who is online

Users browsing this forum: No registered users and 1 guest


You cannot post new topics in this forum
You cannot reply to topics in this forum
You cannot edit your posts in this forum
You cannot delete your posts in this forum
You cannot post attachments in this forum

Search for:
Яндекс.Метрика
Powered by phpBB © 2000, 2002, 2005, 2007 phpBB Group