\m/ 80's metal \m/

Информационно-аналитический форум "80 см пыли" (In Search We Trust) "У нас никто никуда не спешит"
Железнодорожная биржа - RailAgent
It is currently 23 Sep 2017

All times are UTC + 3 hours

Spoiler
Chat - temporary registration for foreign users (please leave your application here)







Post new topic Reply to topic  [ 4 posts ] 
Author Message
 
PostPosted: 14 Oct 2012 
А может смените мне статус?..
User avatar
Joined: 24 Sep 2012
Posts: 856
Lоcаtion: Нижегородская обл.
Age: 47
Name: Вячеслав
Image

Жанр: Heavy Metal
Страна-производитель диска: Germany
Год издания: 1985
Издатель (лейбл): Roadracer Records
Номер по каталогу: RO 9734 2
Страна: United States ( Santa Rosa, California)
Аудиокодек: FLAC (*.flac)
Тип рипа: image+.cue
Битрейт аудио: lossless
Продолжительность: 38:43
Источник (релизер): slayer19
Наличие сканов в содержимом раздачи: да (All Scans)
Треклист:
01. Premonition (Instrumental) (01:04)
02. Ride (Into The Sun) (03:44)
03. Medusa (03:57)
04. Soldiers Of The Night (04:22)
05. Murder (04:01)
06. March Or Die (04:37)
07. Blitz The World (03:37)
08. Invader (Instrumental) (02:51)
09. In Fire (03:22)
10. Domestic Bliss (03:40 )
11. Blistering Winds (03:27)

"Лог создания рипа"
Exact Audio Copy V1.0 beta 3 from 29. August 2011

Отчёт EAC об извлечении, выполненном 14. октября 2012, 19:01

Vicious Rumors / Soldiers of the Night

Дисковод: Optiarc DVD RW AD-7200A Adapter: 0 ID: 0

Режим чтения : Достоверность
Использование точного потока : Да
Отключение кэша аудио : Да
Использование указателей C2 : Нет

Коррекция смещения при чтении : 48
Способность читать области Lead-in и Lead-out : Нет
Заполнение пропущенных сэмплов тишиной : Да
Удаление блоков с тишиной в начале и конце : Нет
При вычислениях CRC использовались нулевые сэмплы : Да
Интерфейс : Встроенный Win32-интерфейс для Win NT/2000

Выходной формат : Пользовательский кодировщик
Выбранный битрейт : 128 kBit/s
Качество : Высокий
Добавление ID3-тега : Нет
Утилита сжатия : C:\Program Files\FLAC\FLAC frontend.exe

TOC извлечённого CD

Трек | Старт | Длительность | Начальный сектор | Конечный сектор
---------------------------------------------------------------------
1 | 0:00.00 | 1:04.07 | 0 | 4806
2 | 1:04.07 | 3:44.30 | 4807 | 21636
3 | 4:48.37 | 3:57.15 | 21637 | 39426
4 | 8:45.52 | 4:22.15 | 39427 | 59091
5 | 13:07.67 | 4:00.53 | 59092 | 77144
6 | 17:08.45 | 4:37.22 | 77145 | 97941
7 | 21:45.67 | 3:37.35 | 97942 | 114251
8 | 25:23.27 | 2:51.30 | 114252 | 127106
9 | 28:14.57 | 3:21.70 | 127107 | 142251
10 | 31:36.52 | 3:39.73 | 142252 | 158749
11 | 35:16.50 | 3:26.57 | 158750 | 174256

Характеристики диапазона извлечения и сообщения об ошибках

Выбранный диапазон

Имя файла D:\МОИ ФАЙЛЫ\LOSSLESS\slayer19\Vicious Rumors - Soldiers of the Night.wav

Пиковый уровень 82.6 %
Скорость извлечения 3.5 X
Качество диапазона 100.0 %
CRC теста FEE695B6
CRC копии FEE695B6
Копирование... OK

Ошибок не произошло

AccurateRip: сводка

Трек 1 : извлечено точно (доверие 10) [C5EB58F5] (AR v1)
Трек 2 : извлечено точно (доверие 10) [7810CAD4] (AR v1)
Трек 3 : извлечено точно (доверие 10) [CF09C63E] (AR v1)
Трек 4 : извлечено точно (доверие 10) [EFBD963E] (AR v1)
Трек 5 : извлечено точно (доверие 10) [B421BFE2] (AR v1)
Трек 6 : извлечено точно (доверие 10) [F61E0857] (AR v1)
Трек 7 : извлечено точно (доверие 10) [7DD2F47A] (AR v1)
Трек 8 : извлечено точно (доверие 10) [9B0E00F5] (AR v1)
Трек 9 : извлечено точно (доверие 10) [2E2C2E94] (AR v1)
Трек 10 : извлечено точно (доверие 10) [772F65B9] (AR v1)
Трек 11 : извлечено точно (доверие 10) [0D31CDD5] (AR v1)

Все треки извлечены точно

Конец отчёта

---- CUETools DB Plugin V2.1.3

[CTDB TOCID: 96BuuIJ15tnUuOxp7G9eihlGFao-] disk not present in database, Submit result: 96BuuIJ15tnUuOxp7G9eihlGFao- has been uploaded

==== Контрольная сумма отчёта B018D6E95B18E3E765C043BE65ED8599221A659A8D33AD7F4E4432F94C50741E ====

"Фото"
Image


Скачать: Vicious Rumors - Soldiers Of The Night (1985) by slayer19.rar

_________________
Image


Top
 Profile E-mail  
 
 
PostPosted: 14 Oct 2012 
А может смените мне статус?..
User avatar
Joined: 22 Nov 2008
Posts: 941
Lоcаtion: Schelcovo,Russia
Age: 45
Name: Сергей
О,есть такой.Но никогда не любил это издание. :nea:


Top
 Profile  
 
 
PostPosted: 15 Oct 2012 
консэрваторъ
Joined: 11 Aug 2007
Posts: 13791
Lоcаtion: Псков
Age: 43
Name: Сергей
Так же тема переехала из мп3-ишных анонсов в этот раздел лосиных анонсов... :thanx:

_________________
THRASH 'EM ALL


Top
 Profile E-mail  
 
 
PostPosted: 13 Oct 2013 
\m/ 80 см сала \m/
User avatar
Joined: 12 Mar 2012
Posts: 2466
Age: 24
Name: Nick
slayer19, :thanx:

_________________
1990 AUROPHON BRAINSTORM (Germany) - lossless
1994 MAUSOLEUM CLASSIX (Belgium-Germany) - lossless
1998 VA - GRIM HARVEST - Complete Metal Massacre Volumes I-XII


Top
 Profile E-mail  
 
Display posts from previous:  Sort by  
Post new topic Reply to topic  [ 4 posts ] 

All times are UTC + 3 hours


Who is online

Users browsing this forum: No registered users and 1 guest


You cannot post new topics in this forum
You cannot reply to topics in this forum
You cannot edit your posts in this forum
You cannot delete your posts in this forum
You cannot post attachments in this forum

Search for:
Яндекс.Метрика
Powered by phpBB © 2000, 2002, 2005, 2007 phpBB Group