\m/ 80's metal \m/

Информационно-аналитический форум "80 см пыли" (In Search We Trust) "У нас никто никуда не спешит"
Железнодорожная биржа - RailAgent
It is currently 19 Nov 2017

All times are UTC + 3 hours

Spoiler
Chat - temporary registration for foreign users (please leave your application here)







Post new topic Reply to topic  [ 2 posts ] 
Author Message
 
PostPosted: 24 Jul 2012 
Труъ
User avatar
Joined: 05 Oct 2008
Posts: 194
Lоcаtion: Saint Petersburg
Age: 44
Name: Jesse
Image

VELOCE HYSTORIA - Shining and Majestic


Year: 2009
Style: Progressive Metal / Melodic Heavy
Country: France
Label: Brennus Music [BR 8209]
Format: EAC-FLAC+CUE+LOG+ 5% RECOVERY
Size: 417 Mb


Image

TRACK LIST:

1. Prelude 01:07
2. Childlike God 04:35
3. Out Of Mind 06:09
4. Damnation 10:26
5. Thoughts In The Garden 05:30
6. Chronology 06:26
7. Written Among The Symbolic 05:45
8. Memory Of Insane 07:53
9. Shining & Majestic 05:07


LINE-UP:

Andre Fuciarelli – vocals
Poul - Guitars
Alexis Ruinier - Bass (Twilight Opus, Fëanturi, Antropofago)
Jonathan - Keyboards
Guilhem – Drums


Produced by Veloce Hystoria, mastered by Jonas Kjellgren (SCAR SYMMETRY)
log
Exact Audio Copy V0.99 prebeta 4 from 23. January 2008

Отчёт EAC об извлечении, выполненном 16. июля 2010, 2:33

Veloce Hystoria / Shining & Majestic

Дисковод: ASUS CRW-5224A Adapter: 3 ID: 0

Режим чтения : Достоверность
Использование точного потока : Да
Отключение кэша аудио : Да
Использование указателей C2 : Нет

Коррекция смещения при чтении : 6
Способность читать области Lead-in и Lead-out : Нет
Заполнение пропущенных сэмплов тишиной : Да
Удаление блоков с тишиной в начале и конце : Нет
При вычислениях CRC использовались нулевые сэмплы : Да
Интерфейс : Установленный внешний ASPI-интерфейс

Выходной формат : Внутренние WAV-операции
Формат сэмплов : 44.100 Гц; 16 бит; стерео


TOC извлечённого CD

Трек | Старт | Длительность | Начальный сектор | Конечный сектор
---------------------------------------------------------------------
1 | 0:00.00 | 1:05.55 | 0 | 4929
2 | 1:05.55 | 4:36.31 | 4930 | 25660
3 | 5:42.11 | 6:11.02 | 25661 | 53487
4 | 11:53.13 | 10:24.55 | 53488 | 100342
5 | 22:17.68 | 5:34.26 | 100343 | 125418
6 | 27:52.19 | 6:31.00 | 125419 | 154743
7 | 34:23.19 | 5:44.54 | 154744 | 180597
8 | 40:07.73 | 7:54.01 | 180598 | 216148
9 | 48:01.74 | 5:04.74 | 216149 | 239022


Характеристики диапазона извлечения и сообщения об ошибках

Выбранный диапазон

Имя файла H:CdVeloce Hystoria - Shining & Majestic by Omarao.wav

Пиковый уровень 97.6 %
Качество диапазона 100.0 %
CRC копии 457C7A88
Копирование... OK

Ошибок не произошло

Конец отчёта


NAROD
password: jesse


Top
 Profile  
 
 
PostPosted: 24 Jul 2012 
Хиппей (support team)
User avatar
Joined: 30 Jul 2007
Posts: 95697
Lоcаtion: Киев (Kyiv, UA)
Age: 44
Name: Andrey
:thanx:

_________________


Top
 Profile E-mail  
 
Display posts from previous:  Sort by  
Post new topic Reply to topic  [ 2 posts ] 

All times are UTC + 3 hours


Who is online

Users browsing this forum: No registered users and 1 guest


You cannot post new topics in this forum
You cannot reply to topics in this forum
You cannot edit your posts in this forum
You cannot delete your posts in this forum
You cannot post attachments in this forum

Search for:
Яндекс.Метрика
Powered by phpBB © 2000, 2002, 2005, 2007 phpBB Group