\m/ 80's metal \m/

Информационно-аналитический форум "80 см пыли" (In Search We Trust) "У нас никто никуда не спешит"
Железнодорожная биржа - RailAgent
It is currently 24 Sep 2017

All times are UTC + 3 hours

Spoiler
Chat - temporary registration for foreign users (please leave your application here)







Post new topic Reply to topic  [ 3 posts ] 
Author Message
 
PostPosted: 06 Feb 2012 
Генеральный thrasher
User avatar
Joined: 03 Oct 2008
Posts: 3148
Lоcаtion: Ханты-Мансийский АО
Age: 42
Name: Сергей
Image

Album:Navostro
Year:1995
Style:Heavy Metal
Country:Czech Republic
Audio:Flac+Cue+Log
Size:349Mb
Label:Monitor Records

Line-Up:
Miloš Doležal - guitar,vocal
Pavel Hejč - guitar
Karel Adam - bass
Daniel Hafstein - drums

Tracklist:
01.Heavy Rider (Harley) 02:33
02.Lazaret 05:22
03.Nebezpečná nálož 03:55
04.Jsem Bůh 04:21
05.Ikarus 04:00
06.Škorpion 04:33
07.Navostro 03:20
08.Betonová džungle 04:49
09.Bílej Cadillac 03:23
10.Vlak Smrti 05:46

Cue
REM ACCURATERIPID 000f4b81-007b6b62-9309da0a
REM DISCID 9309DA0A
REM COMMENT "ExactAudioCopy v0.99pb4"
REM DATE 1995
REM GENRE "Metal"
PERFORMER "Vitacit"
TITLE "Navostro"
FILE "Vitacit - Navostro.flac" WAVE
TRACK 01 AUDIO
TITLE "Heavy Rider"
PERFORMER "Vitacit"
INDEX 00 00:00:00
INDEX 01 00:00:32
TRACK 02 AUDIO
TITLE "Lazaret"
PERFORMER "Vitacit"
INDEX 01 02:33:62
TRACK 03 AUDIO
TITLE "Nebezpeиnб naloћ"
PERFORMER "Vitacit"
INDEX 01 07:55:20
TRACK 04 AUDIO
TITLE "Jsem Bщh"
PERFORMER "Vitacit"
INDEX 01 11:50:60
TRACK 05 AUDIO
TITLE "Ikarus"
PERFORMER "Vitacit"
INDEX 01 16:11:65
TRACK 06 AUDIO
TITLE "Љkorpion"
PERFORMER "Vitacit"
INDEX 01 20:11:22
TRACK 07 AUDIO
TITLE "Navostro"
PERFORMER "Vitacit"
INDEX 01 24:44:12
TRACK 08 AUDIO
TITLE "Betonovб Dћungle"
PERFORMER "Vitacit"
INDEX 01 28:04:62
TRACK 09 AUDIO
TITLE "Bнlej Cadillac"
PERFORMER "Vitacit"
INDEX 01 32:53:22
TRACK 10 AUDIO
TITLE "Vlak Smrti"
PERFORMER "Vitacit"
INDEX 01 36:16:55


Log
CUERipper v2.0.9

EAC extraction logfile from 7. March 2011, 16:14

Vitacit / Navostro

Used drive : TSSTcorp CDDVDW SE-S224Q Adapter: 1 ID: 0

Read mode : Secure
Utilize accurate stream : Yes
Defeat audio cache : Yes
Make use of C2 pointers : No

Read offset correction : 6
Overread into Lead-In and Lead-Out : No
Fill up missing offset samples with silence : Yes
Delete leading and trailing silent blocks : No
Null samples used in CRC calculations : Yes
Used interface : Native Win32 interface for Win NT & 2000

Used output format : Internal WAV Routines
Sample format : 44.100 Hz; 16 Bit; Stereo


TOC of the extracted CD

Track | Start | Length | Start sector | End sector
---------------------------------------------------------
1 | 0:00.32 | 2:33.30 | 32 | 11536
2 | 2:33.62 | 5:21.33 | 11537 | 35644
3 | 7:55.20 | 3:55.40 | 35645 | 53309
4 | 11:50.60 | 4:21.05 | 53310 | 72889
5 | 16:11.65 | 3:59.32 | 72890 | 90846
6 | 20:11.22 | 4:32.65 | 90847 | 111311
7 | 24:44.12 | 3:20.50 | 111312 | 126361
8 | 28:04.62 | 4:48.35 | 126362 | 147996
9 | 32:53.22 | 3:23.33 | 147997 | 163254
10 | 36:16.55 | 5:45.52 | 163255 | 189181


Range status and errors

Selected range

Filename C:\Users\oldrock\Music\Vitacit\1995 - Navostro\Vitacit - Navostro.wav



Peak level 99.6 %
Range quality 100.0 %
Test CRC D9DD6E3E
Copy CRC D9DD6E3E
Copy OK




AccurateRip summary

Track 1 not present in database
Track 2 not present in database
Track 3 not present in database
Track 4 not present in database
Track 5 not present in database
Track 6 not present in database
Track 7 not present in database
Track 8 not present in database
Track 9 not present in database
Track 10 not present in database

None of the tracks are present in the AccurateRip database

End of status report


Spectrum
Image



Navostro


Top
 Profile  
 
 
PostPosted: 03 May 2012 
Студентег
User avatar
Joined: 28 Aug 2007
Posts: 4937
Lоcаtion: г. Москва
Age: 28
Name: Дима
Пасибо, заценим! :true:


Top
 Profile E-mail  
 
 
PostPosted: 03 May 2012 
Хиппей (support team)
User avatar
Joined: 30 Jul 2007
Posts: 93247
Lоcаtion: Киев (Kyiv, UA)
Age: 44
Name: Andrey
:thanx:

mirror: MultiUp l Speedy l Narod

_________________


Top
 Profile E-mail  
 
Display posts from previous:  Sort by  
Post new topic Reply to topic  [ 3 posts ] 

All times are UTC + 3 hours


Who is online

Users browsing this forum: No registered users and 1 guest


You cannot post new topics in this forum
You cannot reply to topics in this forum
You cannot edit your posts in this forum
You cannot delete your posts in this forum
You cannot post attachments in this forum

Search for:
Яндекс.Метрика
Powered by phpBB © 2000, 2002, 2005, 2007 phpBB Group