\m/ 80's metal \m/

Информационно-аналитический форум "80 см пыли" (In Search We Trust) "У нас никто никуда не спешит"
Железнодорожная биржа - RailAgent
It is currently 18 Oct 2017

All times are UTC + 3 hours

Spoiler
Chat - temporary registration for foreign users (please leave your application here)







Post new topic Reply to topic  [ 6 posts ] 
Author Message
 
PostPosted: 06 Feb 2012 
Генеральный thrasher
User avatar
Joined: 03 Oct 2008
Posts: 3183
Lоcаtion: Ханты-Мансийский АО
Age: 42
Name: Сергей
Image

Year:1990
Style:Heavy Metal
Country:Czech Republic
Audio:Flac+Cue+Log
Size:254Mb
Label:Multisonic

Line-Up:
Miloš Doležal - Guitars,Vocals,Synt.
Pavel Kuře Hejč - Guitars,Vocal
Luděk Adamek - Bass
Ivan Polak - Drums

Tracklist:
1.Libido 0:32
2.Dragon 5:07
3.Zvony 4:07
4.Rebel 4:29
5.Loď 3:39
6.Lovec Lebek 3:51
7.Vzhůru Přes Oceбn 3:48
8.Sybila 3:35
9.Zvěř 3:17
10.Beznaděj 3:18

Cue
REM GENRE Heavy Metal
REM DATE 1990
REM DISCID 82086F0A
REM COMMENT ExactAudioCopy v0.99pb4
PERFORMER "Vitacit"
TITLE "Vzhůru přes oceán"
FILE "CD Image.flac" WAVE
TRACK 01 AUDIO
TITLE "Libido"
INDEX 00 00:00:00
INDEX 01 00:00:33
TRACK 02 AUDIO
TITLE "Dragon"
INDEX 00 00:33:62
INDEX 01 00:33:68
TRACK 03 AUDIO
TITLE "Zvony"
INDEX 00 05:41:61
INDEX 01 05:41:65
TRACK 04 AUDIO
TITLE "Rebel"
INDEX 00 09:49:39
INDEX 01 09:50:58
TRACK 05 AUDIO
TITLE "Loď"
INDEX 00 14:21:13
INDEX 01 14:21:40
TRACK 06 AUDIO
TITLE "Lovec lebek"
INDEX 00 17:59:40
INDEX 01 18:01:18
TRACK 07 AUDIO
TITLE "Vzhůru přes oceán"
INDEX 00 21:53:30
INDEX 01 21:54:50
TRACK 08 AUDIO
TITLE "Sybila"
INDEX 00 25:44:18
INDEX 01 25:45:63
TRACK 09 AUDIO
TITLE "Zvěř"
INDEX 00 29:21:36
INDEX 01 29:22:70
TRACK 10 AUDIO
TITLE "Beznaděj"
INDEX 00 32:40:54
INDEX 01 32:41:58


Log
Exact Audio Copy V0.99 prebeta 4 from 23. January 2008

Zбznam extrakce EAC z 10. Иervenec 2009, 16:30

Vitacit / Vzhщru pшes oceбn ** Multisonic 31 0030-2 311

Pouћitб mechanika : TSSTcorpCDDVDW TS-H653B Adapter: 3 ID: 0

Reћim иtenн : Bezpeиnэ
Pouћнt accurate stream : Ano
Obejнt zvukovou vyr. pamмќ : Ne
Pouћнt C2 ukazatele : Ne

Korekce vychэlenн иtenн : 6
Инst lead-in a lead-out : Ne
Nahradit chybмjнcн vzorky tichem : Ano
Smazat ticho na zaибtku a na konci stop : Ne
Pшi vэpoиtu CRC pouћity nulovй vzorky : Ne
Pouћitй rozhranн : Integrovanй Win32 rozhranн pro NT/2k/XP

Pouћitэ vэstupnн formбt : Uћivatelsky definovanэ encoder
Zvolenэ bitrate : 768 kBit/s
Kvalita : Vysokб
Pшidat ID3 tag : Ne
Komprimaиnн program pro pшнkazovэ шбdek : D:\PROGRAMY\Exact Audio Copy\FLAC\FLAC.EXE
Dodateиnй parametry : -6 -V -T "ARTIST=%a" -T "TITLE=%t" -T "ALBUM=%g" -T "DATE=%y" -T "TRACKNUMBER=%n" -T "GENRE=%m" -T "COMMENT=%e" %s -o %d


TOC extrahovanйho CD

Stopa | Poибtek | Dйlka | Poибteиnн sektor | Koncovэ sektor
-----------------------------------------------------------------
1 | 0:00.33 | 0:33.35 | 33 | 2542
2 | 0:33.68 | 5:07.72 | 2543 | 25639
3 | 5:41.65 | 4:08.68 | 25640 | 44307
4 | 9:50.58 | 4:30.57 | 44308 | 64614
5 | 14:21.40 | 3:39.53 | 64615 | 81092
6 | 18:01.18 | 3:53.32 | 81093 | 98599
7 | 21:54.50 | 3:51.13 | 98600 | 115937
8 | 25:45.63 | 3:37.07 | 115938 | 132219
9 | 29:22.70 | 3:18.63 | 132220 | 147132
10 | 32:41.58 | 3:17.27 | 147133 | 161934


Rozsah - stav a chyby

Vybranэ rozsah

nбzev souboru D:\HUDBA\Vitacit - Vzhщru pшes oceбn Multisonic 31 0030-2 311.wav

љpiиkovб ъrovмт 100.0 %
kvalita rozsahu 100.0 %
CRC kopie 1B18410E
kopie OK

Nedoљlo k ћбdnэm chybбm


AccurateRip

Stopa 1 nenн v databбzi
Stopa 2 nenн v databбzi
Stopa 3 nenн v databбzi
Stopa 4 nenн v databбzi
Stopa 5 nenн v databбzi
Stopa 6 nenн v databбzi
Stopa 7 nenн v databбzi
Stopa 8 nenн v databбzi
Stopa 9 nenн v databбzi
Stopa 10 nenн v databбzi

Ani jedna ze stop nenн v AccurateRip databбzi

Konec stavovйho hlбљenн


Spectrum
Image


Vzhůru Přes Oceán

Никакого тихарства Андрюха...Не думаю,что кому-то кроме glloomerxe нужна эта группа... :pardon:


Top
 Profile  
 
 
PostPosted: 20 Feb 2012 
Трешер
User avatar
Joined: 25 Feb 2011
Posts: 1022
Lоcаtion: Харьков
Age: 41
Name: Aleksandr
Эт точно :benya: . после всего прослушанного англоязычного - треш, дез, хеви вдруг потянуло на группы которые поют на своих языках :true:


Top
 Profile E-mail  
 
 
PostPosted: 07 Mar 2012 
труъ антисионист
User avatar
Joined: 01 Aug 2007
Posts: 4529
Lоcаtion: Откуда и большинство из нас
Age: 36
Name: Дядя Вова
Кстати зря вы так, коллектив хоть и на родном поёт, но музяка трушная :true:
phpBB [youtube]

_________________
Image
Image


Top
 Profile  
 
 
PostPosted: 07 Mar 2012 
Генеральный thrasher
User avatar
Joined: 03 Oct 2008
Posts: 3183
Lоcаtion: Ханты-Мансийский АО
Age: 42
Name: Сергей
Glot wrote:
Кстати зря вы так, коллектив хоть и на родном поёт, но музяка трушная :true:


Я то сам их как раз с удовольствием слушаю.


Top
 Profile  
 
 
PostPosted: 08 Mar 2012 
Хиппей (support team)
User avatar
Joined: 30 Jul 2007
Posts: 94284
Lоcаtion: Киев (Kyiv, UA)
Age: 44
Name: Andrey
Уря, а я знаю эту банду :true: :thanx:

mirror: Speedy l Narod

_________________


Top
 Profile E-mail  
 
 
PostPosted: 13 Oct 2012 
Студентег
User avatar
Joined: 28 Aug 2007
Posts: 4969
Lоcаtion: г. Москва
Age: 28
Name: Дима
Спасибо, Серег! :thanx:


Top
 Profile E-mail  
 
Display posts from previous:  Sort by  
Post new topic Reply to topic  [ 6 posts ] 

All times are UTC + 3 hours


Who is online

Users browsing this forum: No registered users and 1 guest


You cannot post new topics in this forum
You cannot reply to topics in this forum
You cannot edit your posts in this forum
You cannot delete your posts in this forum
You cannot post attachments in this forum

Search for:
Яндекс.Метрика
Powered by phpBB © 2000, 2002, 2005, 2007 phpBB Group