\m/ 80's metal \m/

Информационно-аналитический форум "80 см пыли" (In Search We Trust) "У нас никто никуда не спешит"
Me For You - http://me-4u.com
It is currently 16 Oct 2019

All times are UTC + 3 hours

Spoiler
Chat - temporary registration for foreign users (please leave your application here)







Post new topic Reply to topic  [ 4 posts ] 
Author Message
 
PostPosted: 07 Oct 2019 
Работнечег
User avatar
Joined: 28 Aug 2007
Posts: 6028
Lоcаtion: г. Москва
Age: 30
Name: Дима
Vengeance - Arabia (Single)

Image

Year: 1989
Style: Heavy Metal
Country: Holland
Archive: Flac+Cue+Log+Scans
Source: my CD
Size: 117 Mb
Label: CBS

Tracklist:
1. Arabia 04:28
2. That's the Way the Story Goes 02:48
3. Dreamworld (live at Aardschokdag 1989, Zwolle) 04:20
4. Take Me to the Limit (live at Aardschokdag, Zwolle) 03:57

LOG
Exact Audio Copy V1.3 from 2. September 2016

EAC extraction logfile from 1. September 2019, 17:06

Vengeance / Arabia (Single)

Used drive : PIONEER DVD-RW DVR-221 Adapter: 1 ID: 0

Read mode : Secure
Utilize accurate stream : Yes
Defeat audio cache : Yes
Make use of C2 pointers : No

Read offset correction : 6
Overread into Lead-In and Lead-Out : No
Fill up missing offset samples with silence : Yes
Delete leading and trailing silent blocks : No
Null samples used in CRC calculations : Yes
Used interface : Native Win32 interface for Win NT & 2000

Used output format : User Defined Encoder
Selected bitrate : 768 kBit/s
Quality : High
Add ID3 tag : No
Command line compressor : C:\Program Files (x86)\Exact Audio Copy\FLAC\FLAC.EXE
Additional command line options : -6 -V -T "ARTIST=%artist%" -T "TITLE=%title%" -T "ALBUM=%albumtitle%" -T "DATE=%year%" -T "TRACKNUMBER=%tracknr%" -T "GENRE=%genre%" -T "COMMENT=%comment%" -T "BAND=%albuminterpret%" -T "ALBUMARTIST=%albuminterpret%" -T "COMPOSER=%composer%" %haslyrics%--tag-from-file=LYRICS="%lyricsfile%"%haslyrics% -T "DISCNUMBER=%cdnumber%" -T "TOTALDISCS=%totalcds%" -T "TOTALTRACKS=%numtracks%" %hascover%--picture="%coverfile%"%hascover% %source% -o %dest%


TOC of the extracted CD

Track | Start | Length | Start sector | End sector
---------------------------------------------------------
1 | 0:00.00 | 4:29.35 | 0 | 20209
2 | 4:29.35 | 2:50.20 | 20210 | 32979
3 | 7:19.55 | 4:20.47 | 32980 | 52526
4 | 11:40.27 | 3:57.05 | 52527 | 70306


Range status and errors

Selected range

Filename D:\Музыка\Lossless\Vengeance (Hol)\Arabia (Single)(1989)\Vengeance - Arabia (Single).wav

Peak level 99.0 %
Extraction speed 4.7 X
Range quality 100.0 %
Copy CRC 65949A4F
Copy OK

No errors occurred


AccurateRip summary

Track 1 not present in database
Track 2 not present in database
Track 3 not present in database
Track 4 not present in database

None of the tracks are present in the AccurateRip database

End of status report

---- CUETools DB Plugin V2.1.6

[CTDB TOCID: d7jgDqbg1nrHGi1fEYKQEVa4LxQ-] database access error: Невозможно разрешить удаленное имя: 'db.cuetools.net'

CUE
REM GENRE "Heavy Metal"
REM DATE 1989
REM DISCID 1E03A904
REM COMMENT "ExactAudioCopy v1.3"
PERFORMER "Vengeance"
TITLE "Arabia (Single)"
REM COMPOSER ""
FILE "Vengeance - Arabia (Single).flac" WAVE
TRACK 01 AUDIO
TITLE "Arabia"
PERFORMER "Vengeance"
REM COMPOSER ""
INDEX 01 00:00:00
TRACK 02 AUDIO
TITLE "That's The Way The Story Goes"
PERFORMER "Vengeance"
REM COMPOSER ""
INDEX 00 04:26:25
INDEX 01 04:29:35
TRACK 03 AUDIO
TITLE "Dreamworld (Live)"
PERFORMER "Vengeance"
REM COMPOSER ""
INDEX 00 07:17:22
INDEX 01 07:19:55
TRACK 04 AUDIO
TITLE "Take Me To The Limit (Live)"
PERFORMER "Vengeance"
REM COMPOSER ""
INDEX 01 11:40:27


Yadi


Vengeance - If Lovin' You Is Wrong EP

Image

Year: 1989
Style: Heavy Metal
Country: Holland
Archive: Flac+Cue+Log+Scans
Source: my CD
Size: 129 Mb
Label: CBS

Tracklist:
1. If Lovin' You Is Wrong 04:57
2. Just What My Doctor Ordered 03:56
3. Rock'n'Roll Shower (live) 03:52
4. My Heaven Strike Me Down (live) 05:08

LOG
Exact Audio Copy V1.3 from 2. September 2016

EAC extraction logfile from 1. September 2019, 16:58

Vengeance / If Lovin' You Is Wrong EP

Used drive : PIONEER DVD-RW DVR-221 Adapter: 1 ID: 0

Read mode : Secure
Utilize accurate stream : Yes
Defeat audio cache : Yes
Make use of C2 pointers : No

Read offset correction : 6
Overread into Lead-In and Lead-Out : No
Fill up missing offset samples with silence : Yes
Delete leading and trailing silent blocks : No
Null samples used in CRC calculations : Yes
Used interface : Native Win32 interface for Win NT & 2000

Used output format : User Defined Encoder
Selected bitrate : 768 kBit/s
Quality : High
Add ID3 tag : No
Command line compressor : C:\Program Files (x86)\Exact Audio Copy\FLAC\FLAC.EXE
Additional command line options : -6 -V -T "ARTIST=%artist%" -T "TITLE=%title%" -T "ALBUM=%albumtitle%" -T "DATE=%year%" -T "TRACKNUMBER=%tracknr%" -T "GENRE=%genre%" -T "COMMENT=%comment%" -T "BAND=%albuminterpret%" -T "ALBUMARTIST=%albuminterpret%" -T "COMPOSER=%composer%" %haslyrics%--tag-from-file=LYRICS="%lyricsfile%"%haslyrics% -T "DISCNUMBER=%cdnumber%" -T "TOTALDISCS=%totalcds%" -T "TOTALTRACKS=%numtracks%" %hascover%--picture="%coverfile%"%hascover% %source% -o %dest%


TOC of the extracted CD

Track | Start | Length | Start sector | End sector
---------------------------------------------------------
1 | 0:00.00 | 5:00.12 | 0 | 22511
2 | 5:00.12 | 3:56.00 | 22512 | 40211
3 | 8:56.12 | 3:44.63 | 40212 | 57074
4 | 12:41.00 | 5:17.67 | 57075 | 80916


Range status and errors

Selected range

Filename D:\Музыка\Lossless\Vengeance (Hol)\If Lovin' You Is Wrong EP (1989)\Vengeance - If Lovin' You Is Wrong EP.wav

Peak level 99.0 %
Extraction speed 4.8 X
Range quality 100.0 %
Copy CRC 02E670DA
Copy OK

No errors occurred


AccurateRip summary

Track 1 not present in database
Track 2 not present in database
Track 3 not present in database
Track 4 not present in database

None of the tracks are present in the AccurateRip database

End of status report

---- CUETools DB Plugin V2.1.6

[CTDB TOCID: avdiRY7aZfE4AMw1BUP7ocegIvg-] database access error: Невозможно разрешить удаленное имя: 'db.cuetools.net'

CUE
REM GENRE "Heavy Metal"
REM DATE 1989
REM DISCID 27043604
REM COMMENT "ExactAudioCopy v1.3"
PERFORMER "Vengeance"
TITLE "If Lovin' You Is Wrong EP"
REM COMPOSER ""
FILE "Vengeance - If Lovin' You Is Wrong EP.flac" WAVE
TRACK 01 AUDIO
TITLE "If Lovin' You Is Wrong"
PERFORMER "Vengeance"
REM COMPOSER ""
INDEX 01 00:00:00
TRACK 02 AUDIO
TITLE "Just What My Doctor Ordered"
PERFORMER "Vengeance"
REM COMPOSER ""
INDEX 00 04:58:55
INDEX 01 05:00:12
TRACK 03 AUDIO
TITLE "Rock 'N Roll Shower (Live)"
PERFORMER "Vengeance"
REM COMPOSER ""
INDEX 00 08:55:32
INDEX 01 08:56:12
TRACK 04 AUDIO
TITLE "May Heaven Strike Me Down (Live)"
PERFORMER "Vengeance"
REM COMPOSER ""
INDEX 01 12:41:00


Yadi

Vengeance - As the Last Teardrop Falls (Single)

Image

Year: 1992
Style: Heavy Metal
Country: Holland
Archive: Flac+Cue+Log+Scans
Source: my CD
Size: 93 Mb
Label: Columbia Records

Tracklist:
1. As the Last Teardrop Falls 04:18
2. Keepin' Up with the Joneses 04:06
3. Hold on Tight 04:19

LOG
Exact Audio Copy V1.3 from 2. September 2016

EAC extraction logfile from 1. September 2019, 17:15

Vengeance / As The Teardrop Falls (Single)

Used drive : PIONEER DVD-RW DVR-221 Adapter: 1 ID: 0

Read mode : Secure
Utilize accurate stream : Yes
Defeat audio cache : Yes
Make use of C2 pointers : No

Read offset correction : 6
Overread into Lead-In and Lead-Out : No
Fill up missing offset samples with silence : Yes
Delete leading and trailing silent blocks : No
Null samples used in CRC calculations : Yes
Used interface : Native Win32 interface for Win NT & 2000

Used output format : User Defined Encoder
Selected bitrate : 768 kBit/s
Quality : High
Add ID3 tag : No
Command line compressor : C:\Program Files (x86)\Exact Audio Copy\FLAC\FLAC.EXE
Additional command line options : -6 -V -T "ARTIST=%artist%" -T "TITLE=%title%" -T "ALBUM=%albumtitle%" -T "DATE=%year%" -T "TRACKNUMBER=%tracknr%" -T "GENRE=%genre%" -T "COMMENT=%comment%" -T "BAND=%albuminterpret%" -T "ALBUMARTIST=%albuminterpret%" -T "COMPOSER=%composer%" %haslyrics%--tag-from-file=LYRICS="%lyricsfile%"%haslyrics% -T "DISCNUMBER=%cdnumber%" -T "TOTALDISCS=%totalcds%" -T "TOTALTRACKS=%numtracks%" %hascover%--picture="%coverfile%"%hascover% %source% -o %dest%


TOC of the extracted CD

Track | Start | Length | Start sector | End sector
---------------------------------------------------------
1 | 0:00.00 | 4:20.50 | 0 | 19549
2 | 4:20.50 | 4:08.70 | 19550 | 38219
3 | 8:29.45 | 4:18.62 | 38220 | 57631


Range status and errors

Selected range

Filename D:\Музыка\Lossless\Vengeance (Hol)\As The Last Teardrop Falls (Single)(1992)\Vengeance - As The Teardrop Falls (Single).wav

Peak level 100.0 %
Extraction speed 3.0 X
Range quality 100.0 %
Copy CRC 7BF81082
Copy OK

No errors occurred


AccurateRip summary

Track 1 not present in database
Track 2 not present in database
Track 3 not present in database

None of the tracks are present in the AccurateRip database

End of status report

---- CUETools DB Plugin V2.1.6

[CTDB TOCID: S7J8VQ.9I5QiIN8KEy4hYsLhYEQ-] database access error: Невозможно разрешить удаленное имя: 'db.cuetools.net'

CUE
REM GENRE "Heavy Metal"
REM DATE 1992
REM DISCID 13030003
REM COMMENT "ExactAudioCopy v1.3"
PERFORMER "Vengeance"
TITLE "As The Teardrop Falls (Single)"
REM COMPOSER ""
FILE "Vengeance - As The Teardrop Falls (Single).flac" WAVE
TRACK 01 AUDIO
TITLE "As The Last Teardrop Falls"
PERFORMER "Vengeance"
REM COMPOSER ""
INDEX 01 00:00:00
TRACK 02 AUDIO
TITLE "Keepin' Up With The Joneses"
PERFORMER "Vengeance"
REM COMPOSER ""
INDEX 00 04:18:25
INDEX 01 04:20:50
TRACK 03 AUDIO
TITLE "Hold On Tight"
PERFORMER "Vengeance"
REM COMPOSER ""
INDEX 00 08:26:60
INDEX 01 08:29:45


Yadi

Vengeance - Planet Zilch (Single)

Image

Year: 1997
Style: Heavy Metal
Country: Holland
Archive: Flac+Cue+Log+Scans
Source: my CD
Size: 135 Mb
Label: CBS

Tracklist:
1. Planet Zilch 04:07
2. She Said 05:07
3. Big Fat Car 04:07
4. What the Hell Is Going On On 04:26

LOG
Exact Audio Copy V1.3 from 2. September 2016

EAC extraction logfile from 1. September 2019, 17:23

Vengeance / Planet Zilch (Single)

Used drive : PIONEER DVD-RW DVR-221 Adapter: 1 ID: 0

Read mode : Secure
Utilize accurate stream : Yes
Defeat audio cache : Yes
Make use of C2 pointers : No

Read offset correction : 6
Overread into Lead-In and Lead-Out : No
Fill up missing offset samples with silence : Yes
Delete leading and trailing silent blocks : No
Null samples used in CRC calculations : Yes
Used interface : Native Win32 interface for Win NT & 2000

Used output format : User Defined Encoder
Selected bitrate : 768 kBit/s
Quality : High
Add ID3 tag : No
Command line compressor : C:\Program Files (x86)\Exact Audio Copy\FLAC\FLAC.EXE
Additional command line options : -6 -V -T "ARTIST=%artist%" -T "TITLE=%title%" -T "ALBUM=%albumtitle%" -T "DATE=%year%" -T "TRACKNUMBER=%tracknr%" -T "GENRE=%genre%" -T "COMMENT=%comment%" -T "BAND=%albuminterpret%" -T "ALBUMARTIST=%albuminterpret%" -T "COMPOSER=%composer%" %haslyrics%--tag-from-file=LYRICS="%lyricsfile%"%haslyrics% -T "DISCNUMBER=%cdnumber%" -T "TOTALDISCS=%totalcds%" -T "TOTALTRACKS=%numtracks%" %hascover%--picture="%coverfile%"%hascover% %source% -o %dest%


TOC of the extracted CD

Track | Start | Length | Start sector | End sector
---------------------------------------------------------
1 | 0:00.32 | 3:39.18 | 32 | 16474
2 | 3:39.50 | 5:27.52 | 16475 | 41051
3 | 9:07.27 | 4:09.35 | 41052 | 59761
4 | 13:16.62 | 4:27.13 | 59762 | 79799


Range status and errors

Selected range

Filename D:\Музыка\Lossless\Vengeance (Hol)\Planet Zilch (Single)(1997)\Vengeance - Planet Zilch (Single).wav

Peak level 99.2 %
Extraction speed 4.8 X
Range quality 100.0 %
Copy CRC 078FBBEA
Copy OK

No errors occurred


AccurateRip summary

Track 1 not present in database
Track 2 not present in database
Track 3 not present in database
Track 4 not present in database

None of the tracks are present in the AccurateRip database

End of status report

---- CUETools DB Plugin V2.1.6

[CTDB TOCID: p6qiIndUYkkTs6Tn0GWHFofITJg-] database access error: Невозможно разрешить удаленное имя: 'db.cuetools.net'

CUE
REM GENRE "Heavy Metal"
REM DATE 1997
REM DISCID 31042804
REM COMMENT "ExactAudioCopy v1.3"
PERFORMER "Vengeance"
TITLE "Planet Zilch (Single)"
REM COMPOSER ""
FILE "Vengeance - Planet Zilch (Single).flac" WAVE
TRACK 01 AUDIO
TITLE "Planet Zilch"
PERFORMER "Vengeance"
REM COMPOSER ""
INDEX 00 00:00:00
INDEX 01 00:00:32
TRACK 02 AUDIO
TITLE "She Said"
PERFORMER "Vengeance"
REM COMPOSER ""
INDEX 01 03:39:50
TRACK 03 AUDIO
TITLE "Big Fat Car"
PERFORMER "Vengeance"
REM COMPOSER ""
INDEX 00 09:05:55
INDEX 01 09:07:27
TRACK 04 AUDIO
TITLE "What The Hell Is Going On"
PERFORMER "Vengeance"
REM COMPOSER ""
INDEX 00 13:15:55
INDEX 01 13:16:62


Yadi

Vengeance - Crazy Horses (Single)

Image

Year: 1998
Style: Heavy Metal
Country: Holland
Archive: Flac+Cue+Log+Scans
Source: my CD
Size: 118 Mb
Label: Transmission Records

Tracklist:
1. Crazy Horses (Rock version)
2. Crazy Horses (Instrumental version)
3. Lonely Rider
4. Crazy Horses (Horse power mix)

LOG
Exact Audio Copy V1.3 from 2. September 2016

EAC extraction logfile from 1. September 2019, 17:31

Vengeance / Crazy Horses (Single)

Used drive : PIONEER DVD-RW DVR-221 Adapter: 1 ID: 0

Read mode : Secure
Utilize accurate stream : Yes
Defeat audio cache : Yes
Make use of C2 pointers : No

Read offset correction : 6
Overread into Lead-In and Lead-Out : No
Fill up missing offset samples with silence : Yes
Delete leading and trailing silent blocks : No
Null samples used in CRC calculations : Yes
Used interface : Native Win32 interface for Win NT & 2000

Used output format : User Defined Encoder
Selected bitrate : 768 kBit/s
Quality : High
Add ID3 tag : No
Command line compressor : C:\Program Files (x86)\Exact Audio Copy\FLAC\FLAC.EXE
Additional command line options : -6 -V -T "ARTIST=%artist%" -T "TITLE=%title%" -T "ALBUM=%albumtitle%" -T "DATE=%year%" -T "TRACKNUMBER=%tracknr%" -T "GENRE=%genre%" -T "COMMENT=%comment%" -T "BAND=%albuminterpret%" -T "ALBUMARTIST=%albuminterpret%" -T "COMPOSER=%composer%" %haslyrics%--tag-from-file=LYRICS="%lyricsfile%"%haslyrics% -T "DISCNUMBER=%cdnumber%" -T "TOTALDISCS=%totalcds%" -T "TOTALTRACKS=%numtracks%" %hascover%--picture="%coverfile%"%hascover% %source% -o %dest%


TOC of the extracted CD

Track | Start | Length | Start sector | End sector
---------------------------------------------------------
1 | 0:00.00 | 3:01.17 | 0 | 13591
2 | 3:01.17 | 3:02.35 | 13592 | 27276
3 | 6:03.52 | 5:06.12 | 27277 | 50238
4 | 11:09.64 | 4:05.33 | 50239 | 68646


Range status and errors

Selected range

Filename D:\Музыка\Lossless\Vengeance (Hol)\Crazy Horses (Single)(1998)\Vengeance - Crazy Horses (Single).wav

Peak level 95.2 %
Extraction speed 4.7 X
Range quality 100.0 %
Copy CRC 1421B0D5
Copy OK

No errors occurred


AccurateRip summary

Track 1 not present in database
Track 2 not present in database
Track 3 not present in database
Track 4 not present in database

None of the tracks are present in the AccurateRip database

End of status report

---- CUETools DB Plugin V2.1.6

[CTDB TOCID: KvQj4afr4DcQuGHss9e_tT.X.mc-] database access error: Невозможно разрешить удаленное имя: 'db.cuetools.net'

CUE
REM GENRE "Heavy Metal"
REM DATE 1998
REM DISCID 2A039304
REM COMMENT "ExactAudioCopy v1.3"
PERFORMER "Vengeance"
TITLE "Crazy Horses (Single)"
REM COMPOSER ""
FILE "Vengeance - Crazy Horses (Single).flac" WAVE
TRACK 01 AUDIO
TITLE "Crazy Horses (Rock Version)"
PERFORMER "Vengeance"
REM COMPOSER ""
INDEX 01 00:00:00
TRACK 02 AUDIO
TITLE "Crazy Horses (Instrumental Version)"
PERFORMER "Vengeance"
REM COMPOSER ""
INDEX 00 02:59:60
INDEX 01 03:01:17
TRACK 03 AUDIO
TITLE "Lonely Rider (Long Version)"
PERFORMER "Vengeance"
REM COMPOSER ""
INDEX 00 06:02:17
INDEX 01 06:03:52
TRACK 04 AUDIO
TITLE "Crazy Horses (Horse Power Mix)"
PERFORMER "Vengeance"
REM COMPOSER ""
INDEX 00 11:08:20
INDEX 01 11:09:64


Yadi

Группа в представлении не нуждается, в своё время закупился синглами, которые выходили на CD. Может кому будет интересно.


Top
 Profile E-mail  
 
 
PostPosted: 07 Oct 2019 
Прокъмитолист
User avatar
Joined: 12 Aug 2007
Posts: 6623
Lоcаtion: Санктъ-Петербуркъ
Age: 51
Name: Олекъ
утащу пару сингелей. спасибо, Димка :thanx:

зы. а вот сканнер хорошо бы протереть и пропылесосить :crazy:

_________________
прокъметол - это музыко, от которово есть прок (ы)


Top
 Profile  
 
 
PostPosted: 08 Oct 2019 
Работнечег
User avatar
Joined: 28 Aug 2007
Posts: 6028
Lоcаtion: г. Москва
Age: 30
Name: Дима
зы. а вот сканнер хорошо бы протереть и пропылесосить :crazy:

Есть такое, почищу :crazy:


Top
 Profile E-mail  
 
 
PostPosted: 08 Oct 2019 
Хиппей (support team)
User avatar
Joined: 30 Jul 2007
Posts: 114841
Lоcаtion: Киев (Kyiv, UA)
Age: 46
Name: Andrey
Дим, спасибки =))

Позже явно в одну тему лосиную объединю всё это :scratch:

mirrors:

Vengeance (Hol) - Arabia (Single)(1989).rar

Ur-Files l Telega l Uloz l Narod

Vengeance (Hol) - As The Last Teardrop Falls (Single)(1992).rar

Ur-Files l Telega l Uloz l Narod

Vengeance (Hol) - Crazy Horses (Single)(1998).rar

Ur-Files l Telega l Uloz l Narod

Vengeance (Hol) - If Lovin' You Is Wrong EP (1989).rar

Ur-Files l Telega l Uloz l Narod

Vengeance (Hol) - Planet Zilch (Single)(1997).rar

Ur-Files l Telega l Uloz l Narod

_________________


Top
 Profile E-mail  
 
Display posts from previous:  Sort by  
Post new topic Reply to topic  [ 4 posts ] 

All times are UTC + 3 hours


Who is online

Users browsing this forum: No registered users and 2 guests


You cannot post new topics in this forum
You cannot reply to topics in this forum
You cannot edit your posts in this forum
You cannot delete your posts in this forum
You cannot post attachments in this forum

Search for:
Яндекс.Метрика
Powered by phpBB © 2000, 2002, 2005, 2007 phpBB Group