\m/ 80's metal \m/

Информационно-аналитический форум "80 см пыли" (In Search We Trust) "У нас никто никуда не спешит"
Me For You - http://me-4u.com
It is currently 06 Apr 2020

All times are UTC + 3 hours

Spoiler
Chat - temporary registration for foreign users (please leave your application here)







Post new topic Reply to topic  [ 9 posts ] 
Author Message
 
PostPosted: 17 Feb 2010 
труъ антисионист
User avatar
Joined: 01 Aug 2007
Posts: 4544
Lоcаtion: Откуда и большинство из нас
Age: 39
Name: Дядя Вова
Image
Группа: Uppercut
Альбом: Reanimation of Hate
Год: 2004
Лейбл: G.U.C. Records
Стиль: Thrash Metal
Страна: Germany
Формат: Flac / Log / Cue
Размер: 357 Mb

line up:
Daniela Waletzky - vocals
Jan Weigel - guitars
Ralf Winzer - bass
Olaf Heuer - drums

Tracklist:
1. Intro 00:34
2. Massmurderers Heaven 03:18
3. Reanimation of Hate 03:12
4. Breaking the Noise 03:09
5. Stick It Out 03:44
6. Fear 02:54
7. Neighbour in Hell 04:43
8. Liberation 02:51
9. Supernova Fake 03:17
10. Dead End 03:31
11. Resistance 03:30
12. My Mirror 04:10
13. Wrath of Misery 03:17

Total playing time 42:10

log
Exact Audio Copy V0.99 prebeta 3 from 28. July 2007

EAC extraction logfile from 17. February 2010, 19:56

Uppercut / Reanimation of Hate

Used drive : TEAC CD-W552G Adapter: 0 ID: 2

Read mode : Secure
Utilize accurate stream : Yes
Defeat audio cache : Yes
Make use of C2 pointers : No

Read offset correction : 6
Overread into Lead-In and Lead-Out : No
Fill up missing offset samples with silence : Yes
Delete leading and trailing silent blocks : No
Null samples used in CRC calculations : Yes
Used interface : Native Win32 interface for Win NT & 2000

Used output format : Internal WAV Routines
Sample format : 44.100 Hz; 16 Bit; Stereo


TOC of the extracted CD

Track | Start | Length | Start sector | End sector
---------------------------------------------------------
1 | 0:00.00 | 0:34.65 | 0 | 2614
2 | 0:34.65 | 3:18.51 | 2615 | 17515
3 | 3:53.41 | 3:12.45 | 17516 | 31960
4 | 7:06.11 | 3:09.32 | 31961 | 46167
5 | 10:15.43 | 3:44.25 | 46168 | 62992
6 | 13:59.68 | 2:54.01 | 62993 | 76043
7 | 16:53.69 | 4:43.11 | 76044 | 97279
8 | 21:37.05 | 2:51.21 | 97280 | 110125
9 | 24:28.26 | 3:17.04 | 110126 | 124904
10 | 27:45.30 | 3:31.41 | 124905 | 140770
11 | 31:16.71 | 3:30.63 | 140771 | 156583
12 | 34:47.59 | 4:10.29 | 156584 | 175362
13 | 38:58.13 | 3:17.61 | 175363 | 190198


Range status and errors

Selected range

Filename H:\Uppercut - Reanimation of Hate.wav

Peak level 98.2 %
Range quality 99.9 %
Test CRC 7C72AFA6
Copy CRC 7C72AFA6
Copy OK

No errors occurred


AccurateRip summary

Track 1 accurately ripped (confidence 1) [3C8DE669]
Track 2 accurately ripped (confidence 1) [297D44FC]
Track 3 accurately ripped (confidence 1) [98F85C3F]
Track 4 accurately ripped (confidence 1) [612D2308]
Track 5 accurately ripped (confidence 1) [8577D498]
Track 6 accurately ripped (confidence 1) [C33ABBBB]
Track 7 accurately ripped (confidence 1) [23B95D6A]
Track 8 accurately ripped (confidence 1) [72EDC23F]
Track 9 accurately ripped (confidence 1) [1622884E]
Track 10 accurately ripped (confidence 1) [28A36C6E]
Track 11 accurately ripped (confidence 1) [9FA3A499]
Track 12 accurately ripped (confidence 1) [FE1FAB78]
Track 13 accurately ripped (confidence 1) [8CA36CC2]

All tracks accurately ripped

End of status report

=================================DOWNLOAD===============================

Uppercut [2004] [CD] Reanimation of Hate [EAC-FLAC] By Glot [MeTaLMaDNeSS.TeaM] .rar

_________________
Image
Image


Last edited by Glot on 17 Feb 2010, edited 1 time in total.

Top
 Profile  
 
 
PostPosted: 17 Feb 2010 
Прокъмитолист
User avatar
Joined: 12 Aug 2007
Posts: 6698
Lоcаtion: Санктъ-Петербуркъ
Age: 52
Name: Олекъ
Володь, мои поздравления с первым релизом на ММТ :true:

качать не буду - цд есть :crazy:

_________________
прокъметол - это музыко, от которово есть прок (ы)


Top
 Profile  
 
 
PostPosted: 17 Feb 2010 
труъ антисионист
User avatar
Joined: 01 Aug 2007
Posts: 4544
Lоcаtion: Откуда и большинство из нас
Age: 39
Name: Дядя Вова
Спасибо Олег, надо ведь и честь отдать знатному форуму, сколько от туда я накачал музяки, даже и не помню )) :true:

_________________
Image
Image


Top
 Profile  
 
 
PostPosted: 17 Feb 2010 
Хиппей (support team)
User avatar
Joined: 30 Jul 2007
Posts: 118471
Lоcаtion: Киев (Kyiv, UA)
Age: 46
Name: Andrey
Ого, Вовка, ты труъ :true:

_________________


Top
 Profile E-mail  
 
 
PostPosted: 17 Feb 2010 
Работнечег
User avatar
Joined: 28 Aug 2007
Posts: 6197
Lоcаtion: г. Москва
Age: 31
Name: Дима
Омг....не ожидал когда-нибудь увидеть этот диск в сети))) Могу кстати сканы выложить, я пока диск у меня лежал, успел картинки сделать)


Top
 Profile E-mail  
 
 
PostPosted: 17 Feb 2010 
Хиппей (support team)
User avatar
Joined: 30 Jul 2007
Posts: 118471
Lоcаtion: Киев (Kyiv, UA)
Age: 46
Name: Andrey
Ггг, Вовка у тебя диск спёр? :crazy:

_________________


Top
 Profile E-mail  
 
 
PostPosted: 17 Feb 2010 
Прокъмитолист
User avatar
Joined: 12 Aug 2007
Posts: 6698
Lоcаtion: Санктъ-Петербуркъ
Age: 52
Name: Олекъ
я б давно уже зарелизил, но он вроде на ММТ был. а оказываецо, старый релиз давно дохлый, и его удалили из базы :crazy:

_________________
прокъметол - это музыко, от которово есть прок (ы)


Top
 Profile  
 
 
PostPosted: 17 Feb 2010 
труъ антисионист
User avatar
Joined: 01 Aug 2007
Posts: 4544
Lоcаtion: Откуда и большинство из нас
Age: 39
Name: Дядя Вова
Scatterbrain wrote:
Ггг, Вовка у тебя диск спёр? :crazy:

Не, Димка мне его у кого то за небольшой прайс купил, сканы кстати внутри архива есть. :crazy:

_________________
Image
Image


Top
 Profile  
 
 
PostPosted: 17 Feb 2010 
Работнечег
User avatar
Joined: 28 Aug 2007
Posts: 6197
Lоcаtion: г. Москва
Age: 31
Name: Дима
Glot wrote:
Scatterbrain wrote:
Ггг, Вовка у тебя диск спёр? :crazy:

Не, Димка мне его у кого то за небольшой прайс купил, сканы кстати внутри архива есть. :crazy:

ну тогда ладно.Я кстати до сих пор не послушал :crazy:


Top
 Profile E-mail  
 
Display posts from previous:  Sort by  
Post new topic Reply to topic  [ 9 posts ] 

All times are UTC + 3 hours


Who is online

Users browsing this forum: No registered users and 1 guest


You cannot post new topics in this forum
You cannot reply to topics in this forum
You cannot edit your posts in this forum
You cannot delete your posts in this forum
You cannot post attachments in this forum

Search for:
Яндекс.Метрика
Powered by phpBB © 2000, 2002, 2005, 2007 phpBB Group