\m/ 80's metal \m/

Информационно-аналитический форум "80 см пыли" (In Search We Trust) "У нас никто никуда не спешит"
Me For You - http://me-4u.com
It is currently 08 Apr 2020

All times are UTC + 3 hours

Spoiler
Chat - temporary registration for foreign users (please leave your application here)







Post new topic Reply to topic  [ 10 posts ] 
Author Message
 
PostPosted: 06 Oct 2009 
Thrasher
User avatar
Joined: 07 Oct 2007
Posts: 2782
Lоcаtion: Russia, Moscow
Age: 36
Name: Drunk & Evil

Genre: Christian Thrash Metal
Country: USA
Size: 553.72 Mb

Image
LOG
Exact Audio Copy V0.99 prebeta 4 from 23. January 2008

EAC extraction logfile from 27. November 2008, 0:11

Ultimatum / Symphonic Extremities (Remaster)

Used drive : HP DVD Writer 1070r Adapter: 0 ID: 1

Read mode : Secure
Utilize accurate stream : Yes
Defeat audio cache : No
Make use of C2 pointers : Yes

Read offset correction : 6
Overread into Lead-In and Lead-Out : No
Fill up missing offset samples with silence : Yes
Delete leading and trailing silent blocks : No
Null samples used in CRC calculations : No
Used interface : Installed external ASPI interface
Gap handling : Appended to previous track

Used output format : Internal WAV Routines
Sample format : 44.100 Hz; 16 Bit; Stereo


TOC of the extracted CD

Track | Start | Length | Start sector | End sector
---------------------------------------------------------
1 | 0:00.00 | 4:29.58 | 0 | 20232
2 | 4:29.58 | 4:30.71 | 20233 | 40553
3 | 9:00.54 | 4:57.74 | 40554 | 62902
4 | 13:58.53 | 4:08.11 | 62903 | 81513
5 | 18:06.64 | 3:56.37 | 81514 | 99250
6 | 22:03.26 | 1:55.21 | 99251 | 107896
7 | 23:58.47 | 6:14.00 | 107897 | 135946
8 | 30:12.47 | 7:50.68 | 135947 | 171264
9 | 38:03.40 | 6:00.03 | 171265 | 198267
10 | 44:03.43 | 2:54.36 | 198268 | 211353
11 | 46:58.04 | 4:58.70 | 211354 | 233773
12 | 51:56.74 | 5:44.69 | 233774 | 259642
13 | 57:41.68 | 9:01.13 | 259643 | 300230
14 | 66:43.06 | 6:13.66 | 300231 | 328271


Track 1

Filename C:\Documents and Settings\Rob\Desktop\EAC Files\Ultimatum - Symphonic Extremities (Remaster) - 01 - Symphonic Extremities.wav

Pre-gap length 0:00:02.00

Peak level 89.1 %
Track quality 100.0 %
Test CRC 279A207E
Copy CRC 279A207E
Track not present in AccurateRip database
Copy OK

Track 2

Filename C:\Documents and Settings\Rob\Desktop\EAC Files\Ultimatum - Symphonic Extremities (Remaster) - 02 - The Killiing Fields.wav

Peak level 89.1 %
Track quality 100.0 %
Test CRC 8436750E
Copy CRC 8436750E
Track not present in AccurateRip database
Copy OK

Track 3

Filename C:\Documents and Settings\Rob\Desktop\EAC Files\Ultimatum - Symphonic Extremities (Remaster) - 03 - E.N.D..wav

Peak level 89.1 %
Track quality 100.0 %
Test CRC 6DBD58AD
Copy CRC 6DBD58AD
Track not present in AccurateRip database
Copy OK

Track 4

Filename C:\Documents and Settings\Rob\Desktop\EAC Files\Ultimatum - Symphonic Extremities (Remaster) - 04 - Black Light.wav

Peak level 89.1 %
Track quality 100.0 %
Test CRC 2E284088
Copy CRC 2E284088
Track not present in AccurateRip database
Copy OK

Track 5

Filename C:\Documents and Settings\Rob\Desktop\EAC Files\Ultimatum - Symphonic Extremities (Remaster) - 05 - Darkest Void.wav

Peak level 89.1 %
Track quality 99.9 %
Test CRC A1B9841F
Copy CRC A1B9841F
Track not present in AccurateRip database
Copy OK

Track 6

Filename C:\Documents and Settings\Rob\Desktop\EAC Files\Ultimatum - Symphonic Extremities (Remaster) - 06 - Ode To Noise.wav

Peak level 89.1 %
Track quality 100.0 %
Test CRC 715F6646
Copy CRC 715F6646
Track not present in AccurateRip database
Copy OK

Track 7

Filename C:\Documents and Settings\Rob\Desktop\EAC Files\Ultimatum - Symphonic Extremities (Remaster) - 07 - The Grip.wav

Peak level 89.1 %
Track quality 100.0 %
Test CRC 3079AF28
Copy CRC 3079AF28
Track not present in AccurateRip database
Copy OK

Track 8

Filename C:\Documents and Settings\Rob\Desktop\EAC Files\Ultimatum - Symphonic Extremities (Remaster) - 08 - Fatal Delay.wav

Peak level 89.1 %
Track quality 100.0 %
Test CRC DAD4C130
Copy CRC DAD4C130
Track not present in AccurateRip database
Copy OK

Track 9

Filename C:\Documents and Settings\Rob\Desktop\EAC Files\Ultimatum - Symphonic Extremities (Remaster) - 09 - Megaton.wav

Peak level 89.1 %
Track quality 100.0 %
Test CRC 92828492
Copy CRC 92828492
Track not present in AccurateRip database
Copy OK

Track 10

Filename C:\Documents and Settings\Rob\Desktop\EAC Files\Ultimatum - Symphonic Extremities (Remaster) - 10 - Blink.wav

Peak level 89.1 %
Track quality 100.0 %
Test CRC F014DA7B
Copy CRC F014DA7B
Track not present in AccurateRip database
Copy OK

Track 11

Filename C:\Documents and Settings\Rob\Desktop\EAC Files\Ultimatum - Symphonic Extremities (Remaster) - 11 - World Of Sin.wav

Peak level 89.1 %
Track quality 100.0 %
Test CRC 236FA0A5
Copy CRC 236FA0A5
Track not present in AccurateRip database
Copy OK

Track 12

Filename C:\Documents and Settings\Rob\Desktop\EAC Files\Ultimatum - Symphonic Extremities (Remaster) - 12 - Wickedness And Peridition (Demo).wav

Peak level 89.1 %
Track quality 100.0 %
Test CRC 1F616798
Copy CRC 1F616798
Track not present in AccurateRip database
Copy OK

Track 13

Filename C:\Documents and Settings\Rob\Desktop\EAC Files\Ultimatum - Symphonic Extremities (Remaster) - 13 - Fatal Delay (Demo).wav

Peak level 89.1 %
Track quality 100.0 %
Test CRC DF50EAAA
Copy CRC DF50EAAA
Track not present in AccurateRip database
Copy OK

Track 14

Filename C:\Documents and Settings\Rob\Desktop\EAC Files\Ultimatum - Symphonic Extremities (Remaster) - 14 - Blink (Live).wav

Peak level 100.0 %
Track quality 99.9 %
Test CRC E3E4083A
Copy CRC E3E4083A
Track not present in AccurateRip database
Copy OK


None of the tracks are present in the AccurateRip database

No errors occurred

End of status report

Переиздание...мой самый любимый у них, круто замешаная трешовая молотилка с медляковыми размышлениями... Все респекты за рипование и аплоад imaevil :true: Спасибо мужик :true: :true: :true:
Line-up:
Vocals : Scott Waters
Guitars : Robert Gutierrez
Guitars : Steve Trujillo
Bass : Tom Michaels
Drums : Mike Lynch


Tracklist:
1.Symphonic Extremities
2.The Killing Fields
3.E.N.D. [Erroneous Notion Of Death]
4.Black Light
5.Darkest Void
6.Ode To Noise
7.The Grip
8.Fatal Delay
9.Megaton
10.Blink
11.World Of Sin [Bonus Track]
12. Wickedness & Perdition [1993 demo]
13. Fatal Delay [1993 demo]
14. Blink [Live]

TPT:

mega

_________________
ВОДКА, БАБЫ И БЛЮЗ / 40° till death... :bodun:
One time we saw some hookers, but when we got closer, we realised it was Mötley Crüe. ©


Top
 Profile  
 
 
PostPosted: 07 Oct 2009 
Хиппей (support team)
User avatar
Joined: 30 Jul 2007
Posts: 118477
Lоcаtion: Киев (Kyiv, UA)
Age: 46
Name: Andrey
:true:

_________________


Top
 Profile E-mail  
 
 
PostPosted: 07 Oct 2009 
Пионэръ
Joined: 07 Apr 2009
Posts: 31
Lоcаtion: Deutschland
Age: 56
Name: Eric
spasibo bolschoje, che bomba!


---------------------------------------------------------------------------------------------------------------
btw, this is a monster!(thx talon1973):
http://rs484.rapidshare.com/files/262921215/Nitefall_-_Red_Moon_Rising_httppowerandtheglory.nnm.ru.rar


Top
 Profile  
 
 
PostPosted: 07 Oct 2009 
Прокъмитолист
User avatar
Joined: 12 Aug 2007
Posts: 6698
Lоcаtion: Санктъ-Петербуркъ
Age: 52
Name: Олекъ
ыы... что, правда Макс этот альбом выкладывал? :shok: как-то я пропустил значит :dash:
спасибо, Кирюха :drink:

_________________
прокъметол - это музыко, от которово есть прок (ы)


Top
 Profile  
 
 
PostPosted: 11 Jan 2010 
Я набрал 1000 сообщений!
User avatar
Joined: 02 Feb 2009
Posts: 1000
Lоcаtion: из Тулы
Age: 45
Name: Максим
спасибо большое

_________________
КМА


Top
 Profile  
 
 
PostPosted: 11 Jan 2010 
.
User avatar
Joined: 25 Aug 2007
Posts: 568
Lоcаtion: Москва
Age: 108
Name: Kostolom
:thanx:


Top
 Profile  
 
 
PostPosted: 16 Jan 2010 
.
User avatar
Joined: 25 Aug 2007
Posts: 568
Lоcаtion: Москва
Age: 108
Name: Kostolom
вот слушаю. альбом начинается с слышабельного такого щелчка :(


Top
 Profile  
 
 
PostPosted: 17 Jan 2010 
Thrasher
User avatar
Joined: 07 Oct 2007
Posts: 2782
Lоcаtion: Russia, Moscow
Age: 36
Name: Drunk & Evil
Kostolom wrote:
вот слушаю. альбом начинается с слышабельного такого щелчка :(


Сильно обламывает?

_________________
ВОДКА, БАБЫ И БЛЮЗ / 40° till death... :bodun:
One time we saw some hookers, but when we got closer, we realised it was Mötley Crüe. ©


Top
 Profile  
 
 
PostPosted: 17 Jan 2010 
.
User avatar
Joined: 25 Aug 2007
Posts: 568
Lоcаtion: Москва
Age: 108
Name: Kostolom
Так, не очень.. :vic:


Top
 Profile  
 
 
PostPosted: 07 Aug 2011 
ТрэшЭрос
User avatar
Joined: 18 Jul 2011
Posts: 2307
Lоcаtion: Гулькевичи
Age: 45
Name: Александр
:thanx:

_________________
Thrash no trash!!!


Top
 Profile E-mail  
 
Display posts from previous:  Sort by  
Post new topic Reply to topic  [ 10 posts ] 

All times are UTC + 3 hours


Who is online

Users browsing this forum: No registered users and 1 guest


You cannot post new topics in this forum
You cannot reply to topics in this forum
You cannot edit your posts in this forum
You cannot delete your posts in this forum
You cannot post attachments in this forum

Search for:
Яндекс.Метрика
Powered by phpBB © 2000, 2002, 2005, 2007 phpBB Group