\m/ 80's metal \m/

Информационно-аналитический форум "80 см пыли" (In Search We Trust) "У нас никто никуда не спешит"
Me For You - http://me-4u.com
It is currently 28 Mar 2020

All times are UTC + 3 hours

Spoiler
Chat - temporary registration for foreign users (please leave your application here)







Post new topic Reply to topic  [ 4 posts ] 
Author Message
 
PostPosted: 25 Sep 2015 
Генеральный thrasher
User avatar
Joined: 03 Oct 2008
Posts: 3751
Lоcаtion: Ханты-Мансийский АО
Age: 45
Name: Сергей
Image

Year:2011
Style:Thrash Metal
Country:Japan
Archive:Flac+Cue+Log+Scans
Size:445Mb
Source:my CD
Label:Spiritual Beast

Line-Up:
Ken-Shin - vocals
Akihiro ''Yoko'' Yokoyama - bass
Akira - drums
Yoshifumi Yoshida - guitars
Shingo Otani - guitars

Tracklist:
01. Tear Of Illusions 01:43
02. My Inner Revenge 04:20
03. Fight Fear Kill 04:11
04. Hollow 05:36
05. The Awakening 04:38
06. Voice of Sanity 05:06
07. Requiem 01:41
08. From the Evil That Is You 05:14
09. In the Name... 05:32
10. Pit of Fire 04:43
11. Devil with Halo 10:31
12. Fate 06:38

"Cue"
REM GENRE "Thrash Metal"
REM DATE 2011
REM DISCID 9F0E0E0C
REM COMMENT "ExactAudioCopy v0.99pb5"
PERFORMER "United "
TITLE "Tear Of Illusions"
FILE "United - Tear Of Illusions.flac" WAVE
TRACK 01 AUDIO
TITLE "Tear of Illusions"
PERFORMER "United "
INDEX 01 00:00:00
TRACK 02 AUDIO
TITLE "My Inner Revenge"
PERFORMER "United "
INDEX 01 01:43:15
TRACK 03 AUDIO
TITLE "Fight Fear Kill"
PERFORMER "United "
INDEX 01 06:03:28
TRACK 04 AUDIO
TITLE "Hollow"
PERFORMER "United "
INDEX 01 10:14:64
TRACK 05 AUDIO
TITLE "The Awakening"
PERFORMER "United "
INDEX 01 15:51:41
TRACK 06 AUDIO
TITLE "Voice of Sanity"
PERFORMER "United "
INDEX 01 20:29:56
TRACK 07 AUDIO
TITLE "Requiem"
PERFORMER "United "
INDEX 01 25:36:33
TRACK 08 AUDIO
TITLE "From the Evil That Is You"
PERFORMER "United "
INDEX 01 27:17:36
TRACK 09 AUDIO
TITLE "In the Name..."
PERFORMER "United "
INDEX 01 32:31:44
TRACK 10 AUDIO
TITLE "Pit of Fire"
PERFORMER "United "
INDEX 01 38:04:26
TRACK 11 AUDIO
TITLE "Devil with Halo"
PERFORMER "United "
INDEX 01 42:47:71
TRACK 12 AUDIO
TITLE "Fate"
PERFORMER "United "
INDEX 01 53:19:21

"Log"
Exact Audio Copy V0.99 prebeta 5 from 4. May 2009

Отчёт EAC об извлечении, выполненном 14. сентября 2015, 12:47

United / Tear Of Illusions

Дисковод: MATSHITADVD-RAM UJ8A0AS Adapter: 0 ID: 1

Режим чтения : Достоверность
Использование точного потока : Да
Отключение кэша аудио : Да
Использование указателей C2 : Нет

Коррекция смещения при чтении : 102
Способность читать области Lead-in и Lead-out : Нет
Заполнение пропущенных сэмплов тишиной : Да
Удаление блоков с тишиной в начале и конце : Нет
При вычислениях CRC использовались нулевые сэмплы : Да
Интерфейс : Встроенный Win32-интерфейс для Win NT/2000

Выходной формат : Пользовательский кодировщик
Выбранный битрейт : 1024 kBit/s
Качество : Высокий
Добавление ID3-тэга : Нет
Утилита сжатия : C:\Program Files\Exact Audio Copy\FLAC\FLAC.EXE
Дополнительные параметры : -6 -V -T "ARTIST=%a" -T "TITLE=%t" -T "ALBUM=%g" -T "DATE=%y" -T "TRACKNUMBER=%n" -T "GENRE=%m" -T "COMMENT=%e" %s -o %d


TOC извлечённого CD

Трек | Старт | Длительность | Начальный сектор | Конечный сектор
---------------------------------------------------------------------
1 | 0:00.00 | 1:43.15 | 0 | 7739
2 | 1:43.15 | 4:20.13 | 7740 | 27252
3 | 6:03.28 | 4:11.36 | 27253 | 46113
4 | 10:14.64 | 5:36.52 | 46114 | 71365
5 | 15:51.41 | 4:38.15 | 71366 | 92230
6 | 20:29.56 | 5:06.52 | 92231 | 115232
7 | 25:36.33 | 1:41.03 | 115233 | 122810
8 | 27:17.36 | 5:14.08 | 122811 | 146368
9 | 32:31.44 | 5:32.57 | 146369 | 171325
10 | 38:04.26 | 4:43.45 | 171326 | 192595
11 | 42:47.71 | 10:31.25 | 192596 | 239945
12 | 53:19.21 | 6:38.58 | 239946 | 269853


Характеристики диапазона извлечения и сообщения об ошибках

Выбранный диапазон

Имя файла C:\Users\эксперт\Music\United - Tear Of Illusions.wav

Пиковый уровень 100.0 %
Качество диапазона 99.9 %
CRC копии E92E6B8B
Копирование... OK

Ошибок не произошло


AccurateRip: сводка

Трек 1 точность не определена (достоверность 1) [89266718], AccurateRip вернул [A4103503]
Трек 2 точность не определена (достоверность 1) [DDB9301B], AccurateRip вернул [7F665B0A]
Трек 3 точность не определена (достоверность 1) [C0AAE54F], AccurateRip вернул [3D36023A]
Трек 4 точность не определена (достоверность 1) [59367D77], AccurateRip вернул [11D30FB1]
Трек 5 точность не определена (достоверность 1) [9901F5D6], AccurateRip вернул [7289CA2B]
Трек 6 точность не определена (достоверность 1) [69463E73], AccurateRip вернул [E961BABA]
Трек 7 точность не определена (достоверность 1) [EBDFE606], AccurateRip вернул [BBE0BABD]
Трек 8 точность не определена (достоверность 1) [B0D2BFFC], AccurateRip вернул [FA89771D]
Трек 9 точность не определена (достоверность 1) [E8EDA83E], AccurateRip вернул [CFF3BDA4]
Трек 10 точность не определена (достоверность 1) [F36B174D], AccurateRip вернул [C64DA003]
Трек 11 точность не определена (достоверность 1) [BB6837D5], AccurateRip вернул [06AE6871]
Трек 12 точность не определена (достоверность 1) [72B07619], AccurateRip вернул [72C8BB3A]

Ни один трек не прошёл проверки на точность
В вашей базе может быть иной вариант штамповки диска

Конец отчёта


Tear Of Illusions


Top
 Profile  
 
 
PostPosted: 25 Sep 2015 
Генеральный thrasher
User avatar
Joined: 03 Oct 2008
Posts: 3751
Lоcаtion: Ханты-Мансийский АО
Age: 45
Name: Сергей
Ранние альбомы самураев смотрите у Оксаны... ;)


Top
 Profile  
 
 
PostPosted: 25 Sep 2015 
Хиппей (support team)
User avatar
Joined: 30 Jul 2007
Posts: 118437
Lоcаtion: Киев (Kyiv, UA)
Age: 46
Name: Andrey
:thanx:

mirror: iFolder l Narod l M-Cloud

_________________


Top
 Profile E-mail  
 
 
PostPosted: 25 Sep 2015 
Прокъмитолист
User avatar
Joined: 12 Aug 2007
Posts: 6696
Lоcаtion: Санктъ-Петербуркъ
Age: 52
Name: Олекъ
и здесь спасибо! :thanx:

_________________
прокъметол - это музыко, от которово есть прок (ы)


Top
 Profile  
 
Display posts from previous:  Sort by  
Post new topic Reply to topic  [ 4 posts ] 

All times are UTC + 3 hours


Who is online

Users browsing this forum: No registered users and 1 guest


You cannot post new topics in this forum
You cannot reply to topics in this forum
You cannot edit your posts in this forum
You cannot delete your posts in this forum
You cannot post attachments in this forum

Search for:
Яндекс.Метрика
Powered by phpBB © 2000, 2002, 2005, 2007 phpBB Group