\m/ 80's metal \m/

Информационно-аналитический форум "80 см пыли" (In Search We Trust) "У нас никто никуда не спешит"
Me For You - http://me-4u.com
It is currently 02 Apr 2020

All times are UTC + 3 hours

Spoiler
Chat - temporary registration for foreign users (please leave your application here)







Post new topic Reply to topic  [ 8 posts ] 
Author Message
 
PostPosted: 18 Apr 2014 
Rara avis
User avatar
Joined: 27 Jan 2009
Posts: 5471
Name: .
UFO - Too Hot To Handle: The Very Best Of UFO
Image Image

CD1 http://yadi.sk/d/vJyi1QGDMiByP
Log
Exact Audio Copy V0.99 prebeta 5 from 4. May 2009

EAC extraction logfile from 21. January 2012, 1:41

UFO / Too Hot To Handle CD 1

Used drive : ATAPI DVD A DH20A3H Adapter: 0 ID: 1

Read mode : Secure
Utilize accurate stream : Yes
Defeat audio cache : Yes
Make use of C2 pointers : No

Read offset correction : 6
Overread into Lead-In and Lead-Out : No
Fill up missing offset samples with silence : Yes
Delete leading and trailing silent blocks : No
Null samples used in CRC calculations : Yes
Used interface : Native Win32 interface for Win NT & 2000
Gap handling : Appended to previous track

Used output format : User Defined Encoder
Selected bitrate : 1024 kBit/s
Quality : High
Add ID3 tag : No
Command line compressor : C:\Program Files (x86)\Exact Audio Copy\Flac\flac.exe
Additional command line options : -8 -V -T "ARTIST=%a" -T "TITLE=%t" -T "ALBUM=%g" -T "DATE=%y" -T "TRACKNUMBER=%n" -T "TOTALTRACKS=%x" -T "GENRE=%m" -T "ALBUMARTIST=%v" -T "ALBUM ARTIST=%v" -T "COMMENT=EAC Secure Mode, Test & Copy, AccurateRip, FLAC -8


TOC of the extracted CD

Track | Start | Length | Start sector | End sector
---------------------------------------------------------
1 | 0:00.00 | 4:44.35 | 0 | 21334
2 | 4:44.35 | 3:29.41 | 21335 | 37050
3 | 8:14.01 | 3:54.17 | 37051 | 54617
4 | 12:08.18 | 4:05.66 | 54618 | 73058
5 | 16:14.09 | 3:36.13 | 73059 | 89271
6 | 19:50.22 | 3:59.10 | 89272 | 107206
7 | 23:49.32 | 4:59.65 | 107207 | 129696
8 | 28:49.22 | 4:01.53 | 129697 | 147824
9 | 32:51.00 | 5:23.00 | 147825 | 172049
10 | 38:14.00 | 6:28.65 | 172050 | 201214
11 | 44:42.65 | 2:24.34 | 201215 | 212048
12 | 47:07.24 | 3:45.36 | 212049 | 228959
13 | 50:52.60 | 3:18.61 | 228960 | 243870
14 | 54:11.46 | 3:52.33 | 243871 | 261303
15 | 58:04.04 | 3:49.19 | 261304 | 278497
16 | 61:53.23 | 2:56.67 | 278498 | 291764
17 | 64:50.15 | 4:56.07 | 291765 | 313971
18 | 69:46.22 | 4:22.71 | 313972 | 333692
19 | 74:09.18 | 4:00.02 | 333693 | 351694


Track 1

Filename C:\EAC Rips\01 - Doctor Doctor.wav

Pre-gap length 0:00:02.00

Peak level 96.6 %
Track quality 100.0 %
Test CRC C7A13D26
Copy CRC C7A13D26
Track not present in AccurateRip database
Copy OK

Track 2

Filename C:\EAC Rips\02 - Only You Can Rock Me.wav

Pre-gap length 0:00:01.00

Peak level 96.6 %
Track quality 99.9 %
Test CRC AC63FF5D
Copy CRC AC63FF5D
Track not present in AccurateRip database
Copy OK

Track 3

Filename C:\EAC Rips\03 - Let It Roll.wav

Pre-gap length 0:00:01.00

Peak level 91.5 %
Track quality 100.0 %
Test CRC 61942C94
Copy CRC 61942C94
Track not present in AccurateRip database
Copy OK

Track 4

Filename C:\EAC Rips\04 - Shoot Shoot.wav

Pre-gap length 0:00:01.00

Peak level 96.6 %
Track quality 100.0 %
Test CRC 72BE4EEC
Copy CRC 72BE4EEC
Track not present in AccurateRip database
Copy OK

Track 5

Filename C:\EAC Rips\05 - Too Hot To Handle.wav

Pre-gap length 0:00:01.00

Peak level 99.0 %
Track quality 99.9 %
Test CRC 3B9A0E19
Copy CRC 3B9A0E19
Track not present in AccurateRip database
Copy OK

Track 6

Filename C:\EAC Rips\06 - Young Blood.wav

Pre-gap length 0:00:01.00

Peak level 98.0 %
Track quality 100.0 %
Test CRC 53059F64
Copy CRC 53059F64
Track not present in AccurateRip database
Copy OK

Track 7

Filename C:\EAC Rips\07 - Lonley Heart.wav

Pre-gap length 0:00:01.00

Peak level 91.5 %
Track quality 99.9 %
Test CRC 8DFCCC1C
Copy CRC 8DFCCC1C
Track not present in AccurateRip database
Copy OK

Track 8

Filename C:\EAC Rips\08 - Let It Rain.wav

Pre-gap length 0:00:01.00

Peak level 86.2 %
Track quality 100.0 %
Test CRC C31AA52F
Copy CRC C31AA52F
Track not present in AccurateRip database
Copy OK

Track 9

Filename C:\EAC Rips\09 - When Its Time To Rock.wav

Pre-gap length 0:00:01.00

Peak level 98.1 %
Track quality 100.0 %
Test CRC D7226E24
Copy CRC D7226E24
Track not present in AccurateRip database
Copy OK

Track 10

Filename C:\EAC Rips\10 - Rock Bottom.wav

Pre-gap length 0:00:01.00

Peak level 97.2 %
Track quality 99.9 %
Test CRC F7730F93
Copy CRC F7730F93
Track not present in AccurateRip database
Copy OK

Track 11

Filename C:\EAC Rips\11 - Oh My.wav

Pre-gap length 0:00:01.00

Peak level 91.5 %
Track quality 99.9 %
Test CRC 6861B175
Copy CRC 6861B175
Track not present in AccurateRip database
Copy OK

Track 12

Filename C:\EAC Rips\12 - Crystal Light.wav

Pre-gap length 0:00:01.00

Peak level 90.4 %
Track quality 99.9 %
Test CRC 85AD2D3F
Copy CRC 85AD2D3F
Track not present in AccurateRip database
Copy OK

Track 13

Filename C:\EAC Rips\13 - Love Lost Love.wav

Pre-gap length 0:00:01.00

Peak level 96.6 %
Track quality 100.0 %
Test CRC D8D8B1C0
Copy CRC D8D8B1C0
Track not present in AccurateRip database
Copy OK

Track 14

Filename C:\EAC Rips\14 - Natural Thing.wav

Pre-gap length 0:00:00.74

Peak level 99.1 %
Track quality 99.9 %
Test CRC BE520C78
Copy CRC BE520C78
Track not present in AccurateRip database
Copy OK

Track 15

Filename C:\EAC Rips\15 - Im A Loser.wav

Pre-gap length 0:00:01.00

Peak level 96.6 %
Track quality 100.0 %
Test CRC 556054F8
Copy CRC 556054F8
Track not present in AccurateRip database
Copy OK

Track 16

Filename C:\EAC Rips\16 - Can You Roll Her.wav

Pre-gap length 0:00:01.00

Peak level 95.6 %
Track quality 100.0 %
Test CRC DA42D4CF
Copy CRC DA42D4CF
Track not present in AccurateRip database
Copy OK

Track 17

Filename C:\EAC Rips\17 - Just Another Suicide.wav

Pre-gap length 0:00:00.74

Peak level 100.0 %
Track quality 100.0 %
Test CRC DA1AB34C
Copy CRC DA1AB34C
Track not present in AccurateRip database
Copy OK

Track 18

Filename C:\EAC Rips\18 - Night Run.wav

Pre-gap length 0:00:00.71

Peak level 100.0 %
Track quality 100.0 %
Test CRC 8118D1BC
Copy CRC 8118D1BC
Track not present in AccurateRip database
Copy OK

Track 19

Filename C:\EAC Rips\19 - Space Child.wav

Pre-gap length 0:00:01.00

Peak level 90.3 %
Track quality 100.0 %
Test CRC 649E5D62
Copy CRC 649E5D62
Track not present in AccurateRip database
Copy OK


None of the tracks are present in the AccurateRip database

No errors occurred

End of status report

Cue
REM GENRE Rock
REM DATE 2012
REM DISCID 2F125113
REM COMMENT "ExactAudioCopy v0.99pb5"
PERFORMER "UFO"
TITLE "Too Hot To Handle CD 1"
FILE "01 - Doctor Doctor.wav" WAVE
TRACK 01 AUDIO
TITLE "Doctor Doctor"
PERFORMER "UFO"
ISRC GAQ5K0800059
INDEX 01 00:00:00
TRACK 02 AUDIO
TITLE "Only You Can Rock Me"
PERFORMER "UFO"
ISRC GAQ5K0700239
INDEX 00 04:43:35
FILE "02 - Only You Can Rock Me.wav" WAVE
INDEX 01 00:00:00
TRACK 03 AUDIO
TITLE "Let It Roll"
PERFORMER "UFO"
ISRC GAQ5K0700189
INDEX 00 03:28:41
FILE "03 - Let It Roll.wav" WAVE
INDEX 01 00:00:00
TRACK 04 AUDIO
TITLE "Shoot Shoot"
PERFORMER "UFO"
ISRC GAQ5K0800070
INDEX 00 03:53:17
FILE "04 - Shoot Shoot.wav" WAVE
INDEX 01 00:00:00
TRACK 05 AUDIO
TITLE "Too Hot To Handle"
PERFORMER "UFO"
ISRC GAQ5K0700238
INDEX 00 04:04:66
FILE "05 - Too Hot To Handle.wav" WAVE
INDEX 01 00:00:00
TRACK 06 AUDIO
TITLE "Young Blood"
PERFORMER "UFO"
ISRC GAQ5K0800233
INDEX 00 03:35:13
FILE "06 - Young Blood.wav" WAVE
INDEX 01 00:00:00
TRACK 07 AUDIO
TITLE "Lonley Heart"
PERFORMER "UFO"
ISRC GAQ5K0800223
INDEX 00 03:58:10
FILE "07 - Lonley Heart.wav" WAVE
INDEX 01 00:00:00
TRACK 08 AUDIO
TITLE "Let It Rain"
PERFORMER "UFO"
ISRC GAQ5K0700245
INDEX 00 04:58:65
FILE "08 - Let It Rain.wav" WAVE
INDEX 01 00:00:00
TRACK 09 AUDIO
TITLE "When Its Time To Rock"
PERFORMER "UFO"
ISRC GAQ5K0900242
INDEX 00 04:00:53
FILE "09 - When Its Time To Rock.wav" WAVE
INDEX 01 00:00:00
TRACK 10 AUDIO
TITLE "Rock Bottom"
PERFORMER "UFO"
ISRC GAQ5K0700205
INDEX 00 05:22:00
FILE "10 - Rock Bottom.wav" WAVE
INDEX 01 00:00:00
TRACK 11 AUDIO
TITLE "Oh My"
PERFORMER "UFO"
ISRC GAQ5K0700206
INDEX 00 06:27:65
FILE "11 - Oh My.wav" WAVE
INDEX 01 00:00:00
TRACK 12 AUDIO
TITLE "Crystal Light"
PERFORMER "UFO"
ISRC GAQ5K0700202
INDEX 00 02:23:34
FILE "12 - Crystal Light.wav" WAVE
INDEX 01 00:00:00
TRACK 13 AUDIO
TITLE "Love Lost Love"
PERFORMER "UFO"
ISRC GAQ5K0700192
INDEX 00 03:44:36
FILE "13 - Love Lost Love.wav" WAVE
INDEX 01 00:00:00
TRACK 14 AUDIO
TITLE "Natural Thing"
PERFORMER "UFO"
ISRC GAQ5K0700216
INDEX 00 03:17:62
FILE "14 - Natural Thing.wav" WAVE
INDEX 01 00:00:00
TRACK 15 AUDIO
TITLE "Im A Loser"
PERFORMER "UFO"
ISRC GAQ5K0700217
INDEX 00 03:51:33
FILE "15 - Im A Loser.wav" WAVE
INDEX 01 00:00:00
TRACK 16 AUDIO
TITLE "Can You Roll Her"
PERFORMER "UFO"
ISRC GAQ5K0700218
INDEX 00 03:48:19
FILE "16 - Can You Roll Her.wav" WAVE
INDEX 01 00:00:00
TRACK 17 AUDIO
TITLE "Just Another Suicide"
PERFORMER "UFO"
ISRC GAQ5K0800029
INDEX 00 02:55:68
FILE "17 - Just Another Suicide.wav" WAVE
INDEX 01 00:00:00
TRACK 18 AUDIO
TITLE "Night Run"
PERFORMER "UFO"
ISRC GAQ5K0900250
INDEX 00 04:55:11
FILE "18 - Night Run.wav" WAVE
INDEX 01 00:00:00
TRACK 19 AUDIO
TITLE "Space Child"
PERFORMER "UFO"
ISRC GAQ5K0700204
INDEX 00 04:21:71
FILE "19 - Space Child.wav" WAVE
INDEX 01 00:00:00


CD2 http://yadi.sk/d/Nkky5oKIMgURn
Log
Exact Audio Copy V0.99 prebeta 5 from 4. May 2009

EAC extraction logfile from 21. January 2012, 2:10

UFO / Too Hot To Handle CD 2

Used drive : ATAPI DVD A DH20A3H Adapter: 0 ID: 1

Read mode : Secure
Utilize accurate stream : Yes
Defeat audio cache : Yes
Make use of C2 pointers : No

Read offset correction : 6
Overread into Lead-In and Lead-Out : No
Fill up missing offset samples with silence : Yes
Delete leading and trailing silent blocks : No
Null samples used in CRC calculations : Yes
Used interface : Native Win32 interface for Win NT & 2000
Gap handling : Appended to previous track

Used output format : User Defined Encoder
Selected bitrate : 1024 kBit/s
Quality : High
Add ID3 tag : No
Command line compressor : C:\Program Files (x86)\Exact Audio Copy\Flac\flac.exe
Additional command line options : -8 -V -T "ARTIST=%a" -T "TITLE=%t" -T "ALBUM=%g" -T "DATE=%y" -T "TRACKNUMBER=%n" -T "TOTALTRACKS=%x" -T "GENRE=%m" -T "ALBUMARTIST=%v" -T "ALBUM ARTIST=%v" -T "COMMENT=EAC Secure Mode, Test & Copy, AccurateRip, FLAC -8


TOC of the extracted CD

Track | Start | Length | Start sector | End sector
---------------------------------------------------------
1 | 0:00.00 | 3:17.58 | 0 | 14832
2 | 3:17.58 | 4:57.72 | 14833 | 37179
3 | 8:15.55 | 3:44.46 | 37180 | 54025
4 | 12:00.26 | 3:14.32 | 54026 | 68607
5 | 15:14.58 | 7:04.34 | 68608 | 100441
6 | 22:19.17 | 3:58.09 | 100442 | 118300
7 | 26:17.26 | 4:02.08 | 118301 | 136458
8 | 30:19.34 | 4:14.44 | 136459 | 155552
9 | 34:34.03 | 3:44.29 | 155553 | 172381
10 | 38:18.32 | 3:25.62 | 172382 | 187818
11 | 41:44.19 | 5:19.65 | 187819 | 211808
12 | 47:04.09 | 4:59.34 | 211809 | 234267
13 | 52:03.43 | 4:29.41 | 234268 | 254483
14 | 56:33.09 | 4:10.53 | 254484 | 273286
15 | 60:43.62 | 5:00.53 | 273287 | 295839
16 | 65:44.40 | 4:33.03 | 295840 | 316317
17 | 70:17.43 | 4:34.13 | 316318 | 336880
18 | 74:51.56 | 4:06.62 | 336881 | 355392


Track 1

Filename C:\EAC Rips\01 - Hot N Ready.wav

Pre-gap length 0:00:02.00

Peak level 100.0 %
Track quality 100.0 %
Test CRC 9BF35D99
Copy CRC 9BF35D99
Track not present in AccurateRip database
Copy OK

Track 2

Filename C:\EAC Rips\02 - Back Into My Life.wav

Pre-gap length 0:00:01.00

Peak level 94.2 %
Track quality 100.0 %
Test CRC F708A79A
Copy CRC F708A79A
Track not present in AccurateRip database
Copy OK

Track 3

Filename C:\EAC Rips\03 - Gettin Ready.wav

Pre-gap length 0:00:01.00

Peak level 95.5 %
Track quality 100.0 %
Test CRC A1C1F749
Copy CRC A1C1F749
Track not present in AccurateRip database
Copy OK

Track 4

Filename C:\EAC Rips\04 - Pack It Up And Go.wav

Pre-gap length 0:00:01.00

Peak level 100.0 %
Track quality 100.0 %
Test CRC 9108BF51
Copy CRC 9108BF51
Track not present in AccurateRip database
Copy OK

Track 5

Filename C:\EAC Rips\05 - Love To Love.wav

Pre-gap length 0:00:01.00

Peak level 99.1 %
Track quality 100.0 %
Test CRC 66595C48
Copy CRC 66595C48
Track not present in AccurateRip database
Copy OK

Track 6

Filename C:\EAC Rips\06 - Aint No Baby.wav

Pre-gap length 0:00:01.00

Peak level 100.0 %
Track quality 100.0 %
Test CRC 9D274D96
Copy CRC 9D274D96
Track not present in AccurateRip database
Copy OK

Track 7

Filename C:\EAC Rips\07 - Lettin Go.wav

Pre-gap length 0:00:01.00

Peak level 96.9 %
Track quality 100.0 %
Test CRC 4734A50C
Copy CRC 4734A50C
Track not present in AccurateRip database
Copy OK

Track 8

Filename C:\EAC Rips\08 - This Fire Burns Tonight.wav

Pre-gap length 0:00:01.00

Peak level 99.2 %
Track quality 100.0 %
Test CRC D867134B
Copy CRC D867134B
Track not present in AccurateRip database
Copy OK

Track 9

Filename C:\EAC Rips\09 - Gone In The Night.wav

Pre-gap length 0:00:01.00

Peak level 99.2 %
Track quality 100.0 %
Test CRC 6B2B858E
Copy CRC 6B2B858E
Track not present in AccurateRip database
Copy OK

Track 10

Filename C:\EAC Rips\10 - Chains Chains.wav

Pre-gap length 0:00:01.00

Peak level 97.7 %
Track quality 100.0 %
Test CRC 2A9AFD56
Copy CRC 2A9AFD56
Track not present in AccurateRip database
Copy OK

Track 11

Filename C:\EAC Rips\11 - Long Gone.wav

Pre-gap length 0:00:01.00

Peak level 84.4 %
Track quality 100.0 %
Test CRC 08F6315B
Copy CRC 08F6315B
Track not present in AccurateRip database
Copy OK

Track 12

Filename C:\EAC Rips\12 - The Wild The Willing & The Innocent.wav

Pre-gap length 0:00:01.00

Peak level 86.4 %
Track quality 100.0 %
Test CRC F974B57E
Copy CRC F974B57E
Track not present in AccurateRip database
Copy OK

Track 13

Filename C:\EAC Rips\13 - Its Killing Me.wav

Pre-gap length 0:00:00.45

Peak level 88.4 %
Track quality 100.0 %
Test CRC B4FE7A29
Copy CRC B4FE7A29
Track not present in AccurateRip database
Copy OK

Track 14

Filename C:\EAC Rips\14 - The Writer.wav

Pre-gap length 0:00:01.00

Peak level 82.3 %
Track quality 99.9 %
Test CRC FE781B4A
Copy CRC FE781B4A
Track not present in AccurateRip database
Copy OK

Track 15

Filename C:\EAC Rips\15 - Doing It All For You.wav

Pre-gap length 0:00:01.00

Peak level 96.2 %
Track quality 100.0 %
Test CRC 9404B6EB
Copy CRC 9404B6EB
Track not present in AccurateRip database
Copy OK

Track 16

Filename C:\EAC Rips\16 - This Time.wav

Pre-gap length 0:00:01.00

Peak level 100.0 %
Track quality 100.0 %
Test CRC 08E5A76A
Copy CRC 08E5A76A
Track not present in AccurateRip database
Copy OK

Track 17

Filename C:\EAC Rips\17 - Lookin Out For No 1.wav

Pre-gap length 0:00:01.00

Peak level 100.0 %
Track quality 100.0 %
Test CRC DB82BB92
Copy CRC DB82BB92
Track not present in AccurateRip database
Copy OK

Track 18

Filename C:\EAC Rips\18 - High Flyer.wav

Pre-gap length 0:00:01.00

Peak level 99.2 %
Track quality 100.0 %
Test CRC 9CFA574A
Copy CRC 9CFA574A
Track not present in AccurateRip database
Copy OK


None of the tracks are present in the AccurateRip database

No errors occurred

End of status report

Cue
REM GENRE Rock
REM DATE 2012
REM DISCID 0E128212
REM COMMENT "ExactAudioCopy v0.99pb5"
PERFORMER "UFO"
TITLE "Too Hot To Handle CD 2"
FILE "01 - Hot N Ready.wav" WAVE
TRACK 01 AUDIO
TITLE "Hot N Ready"
PERFORMER "UFO"
ISRC GAQ5K0800044
INDEX 01 00:00:00
TRACK 02 AUDIO
TITLE "Back Into My Life"
PERFORMER "UFO"
ISRC GAQ5K0800240
INDEX 00 03:16:58
FILE "02 - Back Into My Life.wav" WAVE
INDEX 01 00:00:00
TRACK 03 AUDIO
TITLE "Gettin Ready"
PERFORMER "UFO"
ISRC GAQ5K0800031
INDEX 00 04:56:72
FILE "03 - Gettin Ready.wav" WAVE
INDEX 01 00:00:00
TRACK 04 AUDIO
TITLE "Pack It Up And Go"
PERFORMER "UFO"
ISRC GAQ5K0800039
INDEX 00 03:43:46
FILE "04 - Pack It Up And Go.wav" WAVE
INDEX 01 00:00:00
TRACK 05 AUDIO
TITLE "Love To Love"
PERFORMER "UFO"
ISRC GAQ5K0700237
INDEX 00 03:13:32
FILE "05 - Love To Love.wav" WAVE
INDEX 01 00:00:00
TRACK 06 AUDIO
TITLE "Aint No Baby"
PERFORMER "UFO"
ISRC GAQ5K0800042
INDEX 00 07:03:34
FILE "06 - Aint No Baby.wav" WAVE
INDEX 01 00:00:00
TRACK 07 AUDIO
TITLE "Lettin Go"
PERFORMER "UFO"
ISRC GAQ5K0700241
INDEX 00 03:57:09
FILE "07 - Lettin Go.wav" WAVE
INDEX 01 00:00:00
TRACK 08 AUDIO
TITLE "This Fire Burns Tonight"
PERFORMER "UFO"
ISRC GAQ5K0800231
INDEX 00 04:01:08
FILE "08 - This Fire Burns Tonight.wav" WAVE
INDEX 01 00:00:00
TRACK 09 AUDIO
TITLE "Gone In The Night"
PERFORMER "UFO"
ISRC GAQ5K0800232
INDEX 00 04:13:44
FILE "09 - Gone In The Night.wav" WAVE
INDEX 01 00:00:00
TRACK 10 AUDIO
TITLE "Chains Chains"
PERFORMER "UFO"
ISRC GAQ5K0700244
INDEX 00 03:43:29
FILE "10 - Chains Chains.wav" WAVE
INDEX 01 00:00:00
TRACK 11 AUDIO
TITLE "Long Gone"
PERFORMER "UFO"
ISRC GAQ5K0800219
INDEX 00 03:24:62
FILE "11 - Long Gone.wav" WAVE
INDEX 01 00:00:00
TRACK 12 AUDIO
TITLE "The Wild The Willing & The Innocent"
PERFORMER "UFO"
ISRC GAQ5K0800220
INDEX 00 05:18:65
FILE "12 - The Wild The Willing & The Innocent.wav" WAVE
INDEX 01 00:00:00
TRACK 13 AUDIO
TITLE "Its Killing Me"
PERFORMER "UFO"
ISRC GAQ5K0800221
INDEX 00 04:58:64
FILE "13 - Its Killing Me.wav" WAVE
INDEX 01 00:00:00
TRACK 14 AUDIO
TITLE "The Writer"
PERFORMER "UFO"
ISRC GAQ5K0800238
INDEX 00 04:28:41
FILE "14 - The Writer.wav" WAVE
INDEX 01 00:00:00
TRACK 15 AUDIO
TITLE "Doing It All For You"
PERFORMER "UFO"
ISRC GAQ5K0800242
INDEX 00 04:09:53
FILE "15 - Doing It All For You.wav" WAVE
INDEX 01 00:00:00
TRACK 16 AUDIO
TITLE "This Time"
PERFORMER "UFO"
ISRC GAQ5K0900248
INDEX 00 04:59:53
FILE "16 - This Time.wav" WAVE
INDEX 01 00:00:00
TRACK 17 AUDIO
TITLE "Lookin Out For No 1"
PERFORMER "UFO"
ISRC GAQ5K0800243
INDEX 00 04:32:03
FILE "17 - Lookin Out For No 1.wav" WAVE
INDEX 01 00:00:00
TRACK 18 AUDIO
TITLE "High Flyer"
PERFORMER "UFO"
ISRC GAQ5K0700191
INDEX 00 04:33:13
FILE "18 - High Flyer.wav" WAVE
INDEX 01 00:00:00


Top
 Profile E-mail  
 
 
PostPosted: 18 Apr 2014 
Partisanen - nicht kapitulieren!!
User avatar
Joined: 25 Dec 2011
Posts: 7314
Lоcаtion: партизанские леса
Age: 47
Name: Владимир
:thanx:

mirror: Narod l

_________________
One more beer and Heavy Metal and I'm just fine!
старовер, куле... слово "блин" - до сих пор через Ъ говорю


Top
 Profile E-mail  
 
 
PostPosted: 18 Apr 2014 
Хиппей (support team)
User avatar
Joined: 30 Jul 2007
Posts: 118458
Lоcаtion: Киев (Kyiv, UA)
Age: 46
Name: Andrey
Ого...Как много песенок на сборнике :thanx: Но нет самой известной :shok:

_________________


Top
 Profile E-mail  
 
 
PostPosted: 18 Apr 2014 
Partisanen - nicht kapitulieren!!
User avatar
Joined: 25 Dec 2011
Posts: 7314
Lоcаtion: партизанские леса
Age: 47
Name: Владимир
угумс... таки не первый раз вижу, что в сборниках УФО нема БеллыДонны :vic:

_________________
One more beer and Heavy Metal and I'm just fine!
старовер, куле... слово "блин" - до сих пор через Ъ говорю


Top
 Profile E-mail  
 
 
PostPosted: 18 Apr 2014 
спирт 100%
User avatar
Joined: 22 Sep 2008
Posts: 4526
Age: 48
Name: Саня
Даша,Спасибо! :thanx:


Top
 Profile  
 
 
PostPosted: 19 Apr 2014 
Rara avis
User avatar
Joined: 27 Jan 2009
Posts: 5471
Name: .
Я просмотрела треклисты концертников и не нашла Белладонны. Странно это как-то :fingal:


Top
 Profile E-mail  
 
 
PostPosted: 19 Apr 2014 
Хиппей (support team)
User avatar
Joined: 30 Jul 2007
Posts: 118458
Lоcаtion: Киев (Kyiv, UA)
Age: 46
Name: Andrey
Да она им так уже осто... надоела, что исполнять отказываются давно явно :esel: :esel: :esel:
Хм... или некому петь?
А то я состав не смотрел :oops:

_________________


Top
 Profile E-mail  
 
 
PostPosted: 21 Apr 2014 
Доктор энтомологии
User avatar
Joined: 22 Jan 2009
Posts: 10119
Lоcаtion: Даугавпилс
Age: 45
Name: Алексей
А мне нравится эта песенка. Я ее слушал шесть раз :meloman: А самые лучшие у Уфо альбомы - первые два, особенно тот, который длинненький


Top
 Profile  
 
Display posts from previous:  Sort by  
Post new topic Reply to topic  [ 8 posts ] 

All times are UTC + 3 hours


Who is online

Users browsing this forum: No registered users and 2 guests


You cannot post new topics in this forum
You cannot reply to topics in this forum
You cannot edit your posts in this forum
You cannot delete your posts in this forum
You cannot post attachments in this forum

Search for:
Яндекс.Метрика
Powered by phpBB © 2000, 2002, 2005, 2007 phpBB Group