\m/ 80's metal \m/

Информационно-аналитический форум "80 см пыли" (In Search We Trust) "У нас никто никуда не спешит"
Me For You - http://me-4u.com
It is currently 10 Apr 2020

All times are UTC + 3 hours

Spoiler
Chat - temporary registration for foreign users (please leave your application here)







Post new topic Reply to topic  [ 3 posts ] 
Author Message
 
PostPosted: 30 Mar 2013 
Генеральный thrasher
User avatar
Joined: 03 Oct 2008
Posts: 3751
Lоcаtion: Ханты-Мансийский АО
Age: 45
Name: Сергей
Image

Year:1998 (2009 Remastered)
Style:Thrash Metal
Country:U.S.A.
Audio:Flac+Cue+Log+Scans
Size:447Mb
Source:my CD
Label:Roxx Productions

Line-Up:
Scott Waters - vocals
Robert Gutierrez - guitars
Steve Trujillo - guitars
Sean Griego - drums
Tom Michaels - bass

Tracklist:
01. Never 04:00
02. Mortal Stomp 05:29
03. Scorn 04:40
04. Puppet Of Destruction 04:15
05. Gutterbox 04:58
06. Repentance 03:58
07. World Of Sin 04:54
08. Crosshope 04:52
09. Conform To Reality 03:22
10. Charged / Power 04:50
Bonus Tracks:
11. Never (Demo) 04:00
12. Sins of Omission (Testament cover) 04:41
13. Mortal Stomp (2008) 05:31

"Log"
Exact Audio Copy V0.99 prebeta 5 from 4. May 2009

Отчёт EAC об извлечении, выполненном 29. марта 2013, 10:46

Ultimatum / Puppet of Destruction (Limited Edition ReMaster)

Дисковод: TSSTcorpCDDVDW SH-S202N Adapter: 0 ID: 1

Режим чтения : Достоверность
Использование точного потока : Да
Отключение кэша аудио : Да
Использование указателей C2 : Нет

Коррекция смещения при чтении : 6
Способность читать области Lead-in и Lead-out : Нет
Заполнение пропущенных сэмплов тишиной : Да
Удаление блоков с тишиной в начале и конце : Нет
При вычислениях CRC использовались нулевые сэмплы : Да
Интерфейс : Встроенный Win32-интерфейс для Win NT/2000

Выходной формат : Пользовательский кодировщик
Выбранный битрейт : 768 kBit/s
Качество : Высокий
Добавление ID3-тэга : Нет
Утилита сжатия : C:\Program Files\Exact Audio Copy\FLAC\FLAC.EXE
Дополнительные параметры : -6 -V -T "ARTIST=%a" -T "TITLE=%t" -T "ALBUM=%g" -T "DATE=%y" -T "TRACKNUMBER=%n" -T "GENRE=%m" -T "COMMENT=%e" %s -o %d


TOC извлечённого CD

Трек | Старт | Длительность | Начальный сектор | Конечный сектор
---------------------------------------------------------------------
1 | 0:00.00 | 4:00.68 | 0 | 18067
2 | 4:00.68 | 5:29.11 | 18068 | 42753
3 | 9:30.04 | 4:40.43 | 42754 | 63796
4 | 14:10.47 | 4:15.40 | 63797 | 82961
5 | 18:26.12 | 4:58.03 | 82962 | 105314
6 | 23:24.15 | 3:58.28 | 105315 | 123192
7 | 27:22.43 | 4:54.56 | 123193 | 145298
8 | 32:17.24 | 4:52.25 | 145299 | 167223
9 | 37:09.49 | 3:22.63 | 167224 | 182436
10 | 40:32.37 | 4:50.53 | 182437 | 204239
11 | 45:23.15 | 4:00.59 | 204240 | 222298
12 | 49:23.74 | 4:41.18 | 222299 | 243391
13 | 54:05.17 | 5:31.49 | 243392 | 268265


Характеристики диапазона извлечения и сообщения об ошибках

Выбранный диапазон

Имя файла E:\Лоси\U\Ultimatum - Puppet of Destruction (Limited Edition ReMaster).wav

Пиковый уровень 96.9 %
Качество диапазона 100.0 %
CRC копии 65273DC4
Копирование... OK

Ошибок не произошло


AccurateRip: сводка

Трек 1 нет в базе данных
Трек 2 нет в базе данных
Трек 3 нет в базе данных
Трек 4 нет в базе данных
Трек 5 нет в базе данных
Трек 6 нет в базе данных
Трек 7 нет в базе данных
Трек 8 нет в базе данных
Трек 9 нет в базе данных
Трек 10 нет в базе данных
Трек 11 нет в базе данных
Трек 12 нет в базе данных
Трек 13 нет в базе данных

Ни одного трека нет в базе AccurateRip

Конец отчёта

"Cue"
REM GENRE "Thrash Metal"
REM DATE 2009
REM DISCID AC0DF80D
REM COMMENT "ExactAudioCopy v0.99pb5"
PERFORMER "Ultimatum"
TITLE "Puppet of Destruction (Limited Edition ReMaster)"
FILE "Ultimatum - Puppet of Destruction (Limited Edition ReMaster).flac" WAVE
TRACK 01 AUDIO
TITLE "Never"
PERFORMER "Ultimatum"
FLAGS DCP
INDEX 01 00:00:00
TRACK 02 AUDIO
TITLE "Mortal Stomp"
PERFORMER "Ultimatum"
FLAGS DCP
INDEX 01 04:00:68
TRACK 03 AUDIO
TITLE "Scorn"
PERFORMER "Ultimatum"
FLAGS DCP
INDEX 01 09:30:04
TRACK 04 AUDIO
TITLE "Puppet of Destruction"
PERFORMER "Ultimatum"
FLAGS DCP
INDEX 01 14:10:47
TRACK 05 AUDIO
TITLE "Gutterbox"
PERFORMER "Ultimatum"
FLAGS DCP
INDEX 01 18:26:12
TRACK 06 AUDIO
TITLE "Repentance"
PERFORMER "Ultimatum"
FLAGS DCP
INDEX 01 23:24:15
TRACK 07 AUDIO
TITLE "World of Sin"
PERFORMER "Ultimatum"
FLAGS DCP
INDEX 01 27:22:43
TRACK 08 AUDIO
TITLE "Crosshope"
PERFORMER "Ultimatum"
FLAGS DCP
INDEX 01 32:17:24
TRACK 09 AUDIO
TITLE "Conform to Reality"
PERFORMER "Ultimatum"
FLAGS DCP
INDEX 01 37:09:49
TRACK 10 AUDIO
TITLE "Charged /Power"
PERFORMER "Ultimatum"
FLAGS DCP
INDEX 01 40:32:37
TRACK 11 AUDIO
TITLE "Never (Demo)"
PERFORMER "Ultimatum"
FLAGS DCP
INDEX 01 45:23:15
TRACK 12 AUDIO
TITLE "Sins of Omission"
PERFORMER "Ultimatum"
FLAGS DCP
INDEX 01 49:23:74
TRACK 13 AUDIO
TITLE "Mortal Stomp (2008)"
PERFORMER "Ultimatum"
FLAGS DCP
INDEX 01 54:05:17


Puppet Of Destruction


Top
 Profile  
 
 
PostPosted: 30 Mar 2013 
Хиппей (support team)
User avatar
Joined: 30 Jul 2007
Posts: 118485
Lоcаtion: Киев (Kyiv, UA)
Age: 46
Name: Andrey
:thanx: :true:

mirror: MultiUp l Narod

_________________


Top
 Profile E-mail  
 
 
PostPosted: 23 Sep 2013 
Работнечег
User avatar
Joined: 28 Aug 2007
Posts: 6197
Lоcаtion: г. Москва
Age: 31
Name: Дима
Спасибо, Серег! :true:


Top
 Profile E-mail  
 
Display posts from previous:  Sort by  
Post new topic Reply to topic  [ 3 posts ] 

All times are UTC + 3 hours


Who is online

Users browsing this forum: No registered users and 1 guest


You cannot post new topics in this forum
You cannot reply to topics in this forum
You cannot edit your posts in this forum
You cannot delete your posts in this forum
You cannot post attachments in this forum

Search for:
Яндекс.Метрика
Powered by phpBB © 2000, 2002, 2005, 2007 phpBB Group