\m/ 80's metal \m/

Информационно-аналитический форум "80 см пыли" (In Search We Trust) "У нас никто никуда не спешит"
Me For You - http://me-4u.com
It is currently 10 Apr 2020

All times are UTC + 3 hours

Spoiler
Chat - temporary registration for foreign users (please leave your application here)







Post new topic Reply to topic  [ 4 posts ] 
Author Message
 
PostPosted: 30 Mar 2013 
Генеральный thrasher
User avatar
Joined: 03 Oct 2008
Posts: 3751
Lоcаtion: Ханты-Мансийский АО
Age: 45
Name: Сергей
Image

Year:2009
Style:Thrash Metal
Country:U.S.A.
Audio:Flac+Cue+Log+Scans
Size:388Mb
Label:Retroactive Records

Line-Up:
Scott Waters - vocals
Robert Gutierrez - guitars
Alan Tuma - drums
Rob Whitlock - bass

Tracklist:
01. Ton Of Bricks (Metal Church cover) 03:12
02. Locked In Chains (The Moshketeers cover) 03:12
03. Sin After Sin (Twisted Sister cover) 02:57
04. Creeping Death (Metallica cover) 06:14
05. Denim And Leather (Saxon cover) 04:41
06. Gut Wrench (Mortification cover) 03:40
07. Moto Psycho (Megadeth cover) 02:28
08. Metal Health (Quiet Riot cover) 05:05
09. Steeler (Judas Priest cover) 04:08
10. Iron Fist (Motorhead cover) 03:04
11. Can't Get Out (Vengeance Rising cover) 04:19
12. Wrathchild (Iron Maiden cover) 02:51
13. Powersurge (Overkill cover) 04:38

"Log"
Exact Audio Copy V0.99 prebeta 5 from 4. May 2009

Отчёт EAC об извлечении, выполненном 5. марта 2013, 10:46

Ultimatum / Lex Metalis

Дисковод: TSSTcorpCDDVDW SH-S202N Adapter: 0 ID: 1

Режим чтения : Достоверность
Использование точного потока : Да
Отключение кэша аудио : Да
Использование указателей C2 : Нет

Коррекция смещения при чтении : 6
Способность читать области Lead-in и Lead-out : Нет
Заполнение пропущенных сэмплов тишиной : Да
Удаление блоков с тишиной в начале и конце : Нет
При вычислениях CRC использовались нулевые сэмплы : Да
Интерфейс : Встроенный Win32-интерфейс для Win NT/2000

Выходной формат : Пользовательский кодировщик
Выбранный битрейт : 768 kBit/s
Качество : Высокий
Добавление ID3-тэга : Нет
Утилита сжатия : C:\Program Files\Exact Audio Copy\FLAC\FLAC.EXE
Дополнительные параметры : -6 -V -T "ARTIST=%a" -T "TITLE=%t" -T "ALBUM=%g" -T "DATE=%y" -T "TRACKNUMBER=%n" -T "GENRE=%m" -T "COMMENT=%e" %s -o %d


TOC извлечённого CD

Трек | Старт | Длительность | Начальный сектор | Конечный сектор
---------------------------------------------------------------------
1 | 0:00.00 | 3:15.29 | 0 | 14653
2 | 3:15.29 | 3:12.26 | 14654 | 29079
3 | 6:27.55 | 2:57.53 | 29080 | 42407
4 | 9:25.33 | 6:14.18 | 42408 | 70475
5 | 15:39.51 | 4:41.33 | 70476 | 91583
6 | 20:21.09 | 3:40.43 | 91584 | 108126
7 | 24:01.52 | 2:28.01 | 108127 | 119227
8 | 26:29.53 | 5:05.70 | 119228 | 142172
9 | 31:35.48 | 4:08.54 | 142173 | 160826
10 | 35:44.27 | 3:04.67 | 160827 | 174693
11 | 38:49.19 | 4:19.29 | 174694 | 194147
12 | 43:08.48 | 2:51.70 | 194148 | 207042
13 | 46:00.43 | 4:38.20 | 207043 | 227912


Характеристики диапазона извлечения и сообщения об ошибках

Выбранный диапазон

Имя файла E:\Лоси\U\Ultimatum - Lex Metalis.wav

Пиковый уровень 97.7 %
Качество диапазона 100.0 %
CRC копии 291F6727
Копирование... OK

Ошибок не произошло


AccurateRip: сводка

Трек 1 нет в базе данных
Трек 2 нет в базе данных
Трек 3 нет в базе данных
Трек 4 нет в базе данных
Трек 5 нет в базе данных
Трек 6 нет в базе данных
Трек 7 нет в базе данных
Трек 8 нет в базе данных
Трек 9 нет в базе данных
Трек 10 нет в базе данных
Трек 11 нет в базе данных
Трек 12 нет в базе данных
Трек 13 нет в базе данных

Ни одного трека нет в базе AccurateRip

Конец отчёта

"Cue"
REM GENRE "Thrash Metal"
REM DATE 2009
REM DISCID BB0BDE0D
REM COMMENT "ExactAudioCopy v0.99pb5"
PERFORMER "Ultimatum"
TITLE "Lex Metalis"
FILE "Ultimatum - Lex Metalis.flac" WAVE
TRACK 01 AUDIO
TITLE "Ton of Bricks"
PERFORMER "Ultimatum"
FLAGS DCP
INDEX 01 00:00:00
TRACK 02 AUDIO
TITLE "Locked In Chains"
PERFORMER "Ultimatum"
FLAGS DCP
INDEX 01 03:15:29
TRACK 03 AUDIO
TITLE "Sin After Sin"
PERFORMER "Ultimatum"
FLAGS DCP
INDEX 01 06:27:55
TRACK 04 AUDIO
TITLE "Creeping Death"
PERFORMER "Ultimatum"
FLAGS DCP
INDEX 01 09:25:33
TRACK 05 AUDIO
TITLE "Denim & Leather"
PERFORMER "Ultimatum"
FLAGS DCP
INDEX 01 15:39:51
TRACK 06 AUDIO
TITLE "Gut Wrench"
PERFORMER "Ultimatum"
FLAGS DCP
INDEX 01 20:21:09
TRACK 07 AUDIO
TITLE "Moto Psycho"
PERFORMER "Ultimatum"
FLAGS DCP
INDEX 01 24:01:52
TRACK 08 AUDIO
TITLE "Metal Health"
PERFORMER "Ultimatum"
FLAGS DCP
INDEX 01 26:29:53
TRACK 09 AUDIO
TITLE "Steeler"
PERFORMER "Ultimatum"
FLAGS DCP
INDEX 01 31:35:48
TRACK 10 AUDIO
TITLE "Iron Fist"
PERFORMER "Ultimatum"
FLAGS DCP
INDEX 01 35:44:27
TRACK 11 AUDIO
TITLE "Can't Get Out"
PERFORMER "Ultimatum"
FLAGS DCP
INDEX 01 38:49:19
TRACK 12 AUDIO
TITLE "Wrathchild"
PERFORMER "Ultimatum"
FLAGS DCP
INDEX 01 43:08:48
TRACK 13 AUDIO
TITLE "Powersurge"
PERFORMER "Ultimatum"
FLAGS DCP
INDEX 01 46:00:43


Lex Metalis


Top
 Profile  
 
 
PostPosted: 30 Mar 2013 
Генеральный thrasher
User avatar
Joined: 03 Oct 2008
Posts: 3751
Lоcаtion: Ханты-Мансийский АО
Age: 45
Name: Сергей
Рип как обычно с моего диска.Раздаю и на рутрэкере.


Top
 Profile  
 
 
PostPosted: 30 Mar 2013 
Дежурный по КУПу
User avatar
Joined: 17 Aug 2007
Posts: 5871
Age: 51
Name: Ге
:thanx:

_________________
http://jp-mania.ru/
http://jp-tourdates.ucoz.ru/


Top
 Profile  
 
 
PostPosted: 30 Mar 2013 
Хиппей (support team)
User avatar
Joined: 30 Jul 2007
Posts: 118485
Lоcаtion: Киев (Kyiv, UA)
Age: 46
Name: Andrey
:thanx:

mirror: MultiUp l Narod

_________________


Top
 Profile E-mail  
 
Display posts from previous:  Sort by  
Post new topic Reply to topic  [ 4 posts ] 

All times are UTC + 3 hours


Who is online

Users browsing this forum: No registered users and 1 guest


You cannot post new topics in this forum
You cannot reply to topics in this forum
You cannot edit your posts in this forum
You cannot delete your posts in this forum
You cannot post attachments in this forum

Search for:
Яндекс.Метрика
Powered by phpBB © 2000, 2002, 2005, 2007 phpBB Group