\m/ 80's metal \m/

Информационно-аналитический форум "80 см пыли" (In Search We Trust) "У нас никто никуда не спешит"
Me For You - http://me-4u.com
It is currently 28 Mar 2020

All times are UTC + 3 hours

Spoiler
Chat - temporary registration for foreign users (please leave your application here)







Post new topic Reply to topic  [ 17 posts ] 
Author Message
 
PostPosted: 17 Nov 2012 
ТрэшЭрос
User avatar
Joined: 18 Jul 2011
Posts: 2307
Lоcаtion: Гулькевичи
Age: 45
Name: Александр
Unscared - Mosh Attack

Image

Band: Unscared
Album: Mosh Attack
Year: 2004
Type: Demo
Label: Self-released / independent
Genre: Thrash Metal
Country: Germany
Location: Heppenheim, Hesse

Line-up:
Kai Giegrich - Bass
Christian Daum - Drums
Dirk Mattheis - Guitars
Christian "Zottel" Müller - Vocals

Tracklist:
1. Mosh Attack
2. Endless Times
3. Dance of the Mad
4. Fuck All the Ballads
5. Games of War
6. Friday 13th
7. Proud to be Your Enemy
8. UnscareD
9. Hit the Lights (Metallica cover)

Страничка на Metal-Archives

_________________
Thrash no trash!!!


Top
 Profile E-mail  
 
 
PostPosted: 17 Nov 2012 
ТрэшЭрос
User avatar
Joined: 18 Jul 2011
Posts: 2307
Lоcаtion: Гулькевичи
Age: 45
Name: Александр
На офисайте предлагают CD (собственного производства) + 8-страничный полноцветный буклет всего за €5,00*
* Упаковка и почтовые: + 2 € (может изменяться за пределами Германии)

_________________
Thrash no trash!!!


Top
 Profile E-mail  
 
 
PostPosted: 19 Nov 2012 
Работнечег
User avatar
Joined: 28 Aug 2007
Posts: 6195
Lоcаtion: г. Москва
Age: 31
Name: Дима
Саш обещать пока не буду, но впринципе в покупке заинтересован...


Top
 Profile E-mail  
 
 
PostPosted: 20 Nov 2012 
ТрэшЭрос
User avatar
Joined: 18 Jul 2011
Posts: 2307
Lоcаtion: Гулькевичи
Age: 45
Name: Александр
church wrote:
в покупке заинтересован...
:true:

_________________
Thrash no trash!!!


Top
 Profile E-mail  
 
 
PostPosted: 12 Jun 2013 
Работнечег
User avatar
Joined: 28 Aug 2007
Posts: 6195
Lоcаtion: г. Москва
Age: 31
Name: Дима
Демка у меня, постараюсь в течение месяца выложить)


Top
 Profile E-mail  
 
 
PostPosted: 29 Jun 2013 
Работнечег
User avatar
Joined: 28 Aug 2007
Posts: 6195
Lоcаtion: г. Москва
Age: 31
Name: Дима
Image

Band: Unscared
Album: Mosh Attack (Demo)
Label: Self-Released
Genre: Thrash Metal
Country: Germany
Format: Flac + Log + Cue + Covers
Size: 263 Mb

LOG
Exact Audio Copy V0.99 prebeta 5 from 4. May 2009

EAC extraction logfile from 29. June 2013, 15:43

Unscared / Mosh Attack (Demo)

Used drive : PIONEER DVD-RW DVR-116D Adapter: 0 ID: 0

Read mode : Secure
Utilize accurate stream : Yes
Defeat audio cache : Yes
Make use of C2 pointers : No

Read offset correction : 96
Overread into Lead-In and Lead-Out : No
Fill up missing offset samples with silence : Yes
Delete leading and trailing silent blocks : No
Null samples used in CRC calculations : Yes
Used interface : Native Win32 interface for Win NT & 2000

Used output format : User Defined Encoder
Selected bitrate : 32 kBit/s
Quality : High
Add ID3 tag : No
Command line compressor : C:\Program Files\Exact Audio Copy\Flac\flac.exe
Additional command line options : -6 -V %s


TOC of the extracted CD

Track | Start | Length | Start sector | End sector
---------------------------------------------------------
1 | 0:00.00 | 4:02.00 | 0 | 18149
2 | 4:02.00 | 5:27.03 | 18150 | 42677
3 | 9:29.03 | 3:29.57 | 42678 | 58409
4 | 12:58.60 | 2:21.73 | 58410 | 69057
5 | 15:20.58 | 4:02.45 | 69058 | 87252
6 | 19:23.28 | 4:57.72 | 87253 | 109599
7 | 24:21.25 | 3:32.66 | 109600 | 125565
8 | 27:54.16 | 5:21.12 | 125566 | 149652
9 | 33:15.28 | 3:19.43 | 149653 | 164620


Range status and errors

Selected range

Filename D:\Музыка\Lossless\Unscared - Mosh Attack (Demo) (2004)\Unscared - Mosh Attack (Demo).wav

Peak level 100.0 %
Range quality 99.9 %
Copy CRC 7D790AC0
Copy OK

No errors occurred


AccurateRip summary

Track 1 not present in database
Track 2 not present in database
Track 3 not present in database
Track 4 not present in database
Track 5 not present in database
Track 6 not present in database
Track 7 not present in database
Track 8 not present in database
Track 9 not present in database

None of the tracks are present in the AccurateRip database

End of status report

CUE
REM GENRE "Thrash Metal"
REM DATE 2004
REM DISCID 7E089209
REM COMMENT "ExactAudioCopy v0.99pb5"
PERFORMER "Unscared"
TITLE "Mosh Attack (Demo)"
FILE "Unscared - Mosh Attack (Demo).flac" WAVE
TRACK 01 AUDIO
TITLE "Mosh Attack"
PERFORMER "Unscared"
INDEX 01 00:00:00
TRACK 02 AUDIO
TITLE "Endless Times"
PERFORMER "Unscared"
INDEX 01 04:02:00
TRACK 03 AUDIO
TITLE "Dance Of The Mad"
PERFORMER "Unscared"
INDEX 01 09:29:03
TRACK 04 AUDIO
TITLE "Fuck All The Ballads"
PERFORMER "Unscared"
INDEX 01 12:58:60
TRACK 05 AUDIO
TITLE "Games Of War"
PERFORMER "Unscared"
INDEX 01 15:20:58
TRACK 06 AUDIO
TITLE "Friday 13th"
PERFORMER "Unscared"
INDEX 01 19:23:28
TRACK 07 AUDIO
TITLE "Proud To Be Your Enemy"
PERFORMER "Unscared"
INDEX 01 24:21:25
TRACK 08 AUDIO
TITLE "Unscared"
PERFORMER "Unscared"
INDEX 01 27:54:16
TRACK 09 AUDIO
TITLE "Hit The Lights"
PERFORMER "Unscared"
INDEX 01 33:15:28


Rusfolder.Ru

Вокал не очень понравился, а так демка зачетная! :true:


Top
 Profile E-mail  
 
 
PostPosted: 30 Jun 2013 
Хиппей (support team)
User avatar
Joined: 30 Jul 2007
Posts: 118437
Lоcаtion: Киев (Kyiv, UA)
Age: 46
Name: Andrey
:thanx:

mirror: F-Bit l Narod

_________________


Top
 Profile E-mail  
 
 
PostPosted: 30 Jun 2013 
Хиппей (support team)
User avatar
Joined: 30 Jul 2007
Posts: 118437
Lоcаtion: Киев (Kyiv, UA)
Age: 46
Name: Andrey
Хм... в первой песне раз 20-25 вокалист орёть "Можете!!!" :vic:

Это он кому? :smerd:

_________________


Top
 Profile E-mail  
 
 
PostPosted: 30 Jun 2013 
Хиппей (support team)
User avatar
Joined: 30 Jul 2007
Posts: 118437
Lоcаtion: Киев (Kyiv, UA)
Age: 46
Name: Andrey
Хых, а ведь охренезный альбом :true: :true: :true:

Ни минуты покоя - без малого 37 минут пролетели как мгновение. И так раз 15 :crazy:
Ни капли лишнего в музыке группы. Ничего ненужного или моднявого, всё по-олдовому.
Бескомпромиссный трэшак очень удачно смешанный с хардкором старой школы, давящийся вокал, который берёт не связками, а умением очень-очень быстро орать-выплёвывать текст и очень часто вставлять куплеты после коротких припевов =)
Основной хит не перепевка Металлики, а собственная вещь "Fuck All The Ballads" :kz:
В общем, я в восторге :meloman:

9/10

_________________


Top
 Profile E-mail  
 
 
PostPosted: 30 Jun 2013 
ТрэшЭрос
User avatar
Joined: 18 Jul 2011
Posts: 2307
Lоcаtion: Гулькевичи
Age: 45
Name: Александр
church, ты - Бог!!! :pray: Тяжметовское пасипке табе за аццкий труд!!! :thanx:

_________________
Thrash no trash!!!


Top
 Profile E-mail  
 
 
PostPosted: 30 Jun 2013 
ТрэшЭрос
User avatar
Joined: 18 Jul 2011
Posts: 2307
Lоcаtion: Гулькевичи
Age: 45
Name: Александр
Scatterbrain wrote:
я в восторге

Нет такого слова, коим я могу выразить свою радость!!! :true: :true: :true:

_________________
Thrash no trash!!!


Top
 Profile E-mail  
 
 
PostPosted: 30 Jun 2013 
ТрэшЭрос
User avatar
Joined: 18 Jul 2011
Posts: 2307
Lоcаtion: Гулькевичи
Age: 45
Name: Александр
Фанатам группы - сюрприз! Unscared - People Of The Lie (cover Kreator) :true:

_________________
Thrash no trash!!!


Top
 Profile E-mail  
 
 
PostPosted: 30 Jun 2013 
Работнечег
User avatar
Joined: 28 Aug 2007
Posts: 6195
Lоcаtion: г. Москва
Age: 31
Name: Дима
church, ты - Бог!!! :pray: Тяжметовское пасипке табе за аццкий труд!!! :thanx:

Хах, стараюсь :benya:
P.S. Также прикупил у ребят альбом, но выкладывать на общее обозрение не планирую, если кому-то надо, пишите в личку, сделаю)
P.P.S. Кавер хороший, ничего нового не внесли, но и песню не испортили :true:


Top
 Profile E-mail  
 
 
PostPosted: 30 Jun 2013 
Хиппей (support team)
User avatar
Joined: 30 Jul 2007
Posts: 118437
Lоcаtion: Киев (Kyiv, UA)
Age: 46
Name: Andrey
А группа так и не подписалась ни на каком из лэйблом? :vic:
Или это чисто их желание? :oops:

_________________


Top
 Profile E-mail  
 
 
PostPosted: 30 Jun 2013 
Работнечег
User avatar
Joined: 28 Aug 2007
Posts: 6195
Lоcаtion: г. Москва
Age: 31
Name: Дима
Во-первых, не подписались, во-вторых альбомец новый довольно 2012 года, пускай попродают ещё дисков, хоть какие-то копейки получат)


Top
 Profile E-mail  
 
 
PostPosted: 30 Jun 2013 
Хиппей (support team)
User avatar
Joined: 30 Jul 2007
Posts: 118437
Lоcаtion: Киев (Kyiv, UA)
Age: 46
Name: Andrey
А я его уже как-то скачивал откуда-то :oops: Если ничо не путаю :scratch:

А во-вторых, явно у них концепт такой - не издавать альбомы на лэйлах вообще.

_________________


Top
 Profile E-mail  
 
 
PostPosted: 30 Jun 2013 
Доктор энтомологии
User avatar
Joined: 22 Jan 2009
Posts: 10117
Lоcаtion: Даугавпилс
Age: 45
Name: Алексей
church
:thanx: :true:


Top
 Profile  
 
Display posts from previous:  Sort by  
Post new topic Reply to topic  [ 17 posts ] 

All times are UTC + 3 hours


Who is online

Users browsing this forum: No registered users and 1 guest


You cannot post new topics in this forum
You cannot reply to topics in this forum
You cannot edit your posts in this forum
You cannot delete your posts in this forum
You cannot post attachments in this forum

Search for:
Яндекс.Метрика
Powered by phpBB © 2000, 2002, 2005, 2007 phpBB Group