\m/ 80's metal \m/
http://80metal.com/

Thunder Lord [2012] [CD] Heavy Metal Rage [Reissue 2014] [EAC-FLAC] [Heavy/Power Metal] [CHL]
http://80metal.com/viewtopic.php?f=193&t=12983
Page 1 of 1

Author:  32warlord1 [ 24 May 2015 ]
Post subject:  Thunder Lord [2012] [CD] Heavy Metal Rage [Reissue 2014] [EAC-FLAC] [Heavy/Power Metal] [CHL]

Thunder Lord [2012] [CD] Heavy Metal Rage [Reissue 2014]
Image

Site : http://www.metal-archives.com/bands/ThunderLord/32384
Country : Chile
Year : 2012
Label : Iron Shield Records
Tracks : 9
Playtime : 00:38:07
Size : 319.7 MB
Codec : FLAC/Lossless

Tracklist :
01. Dark Rider (04:26)
02. My Bloody Final (04:26)
03. Crusaders (03:21)
04. Tyranny (03:46)
05. Steel In Battle (04:58)
06. Pirate Attack (04:08)
07. Mithrandir (03:47)
08. A New Beginning (03:54)
09. Heavy Metal Rage (05:17)

EAC log | +
Code:
Exact Audio Copy V1.0 beta 3 from 29. August 2011

EAC extraction logfile from 15. October 2014, 22:47

Thunder Lord / Heavy Metal Rage (Reissue 2014)

Used drive : Optiarc DVD RW AD-7260S Adapter: 1 ID: 1

Read mode : Secure
Utilize accurate stream : Yes
Defeat audio cache : Yes
Make use of C2 pointers : No

Read offset correction : 48
Overread into Lead-In and Lead-Out : No
Fill up missing offset samples with silence : Yes
Delete leading and trailing silent blocks : No
Null samples used in CRC calculations : Yes
Used interface : Native Win32 interface for Win NT & 2000

Used output format : Internal WAV Routines
Sample format : 44.100 Hz; 16 Bit; Stereo

TOC of the extracted CD

Track | Start | Length | Start sector | End sector
---------------------------------------------------------
1 | 0:00.00 | 4:26.11 | 0 | 19960
2 | 4:26.11 | 4:26.51 | 19961 | 39961
3 | 8:52.62 | 3:21.51 | 39962 | 55087
4 | 12:14.38 | 3:45.70 | 55088 | 72032
5 | 16:00.33 | 4:58.27 | 72033 | 94409
6 | 20:58.60 | 4:08.47 | 94410 | 113056
7 | 25:07.32 | 3:47.64 | 113057 | 130145
8 | 28:55.21 | 3:54.27 | 130146 | 147722
9 | 32:49.48 | 5:17.39 | 147723 | 171536

Range status and errors

Selected range

Filename C:Мои документыThunder Lord - 2012 - Heavy Metal Rage (Reissue 2014).wav

Peak level 96.6 %
Extraction speed 3.5 X
Range quality 99.9 %
Test CRC 2107B796
Copy CRC 2107B796
Copy OK

No errors occurred

AccurateRip summary

Track 1 not present in database
Track 2 not present in database
Track 3 not present in database
Track 4 not present in database
Track 5 not present in database
Track 6 not present in database
Track 7 not present in database
Track 8 not present in database
Track 9 not present in database

None of the tracks are present in the AccurateRip database

End of status report

---- CUETools DB Plugin V2.1.4

[CTDB TOCID: IzuHGWntK3NFrfahoTlwfRfgphw-] disk not present in database
Submit result: IzuHGWntK3NFrfahoTlwfRfgphw- has been uploaded

==== Log checksum 15BD5552E9812185FF07D64F5E5163293944C515DCDAAEC7589552C2C8532021 ====


Image

Author:  spiralarch [ 25 May 2015 ]
Post subject:  Re: Thunder Lord [2012] [CD] Heavy Metal Rage [Reissue 2014] [EAC-FLAC] [Heavy/Power Metal] [CHL]

:thanx:

Author:  Scatterbrain [ 25 May 2015 ]
Post subject:  Re: Thunder Lord [2012] [CD] Heavy Metal Rage [Reissue 2014] [EAC-FLAC] [Heavy/Power Metal] [CHL]

:thanx:

mirror: iFolder l Narod l M-Cloud

Page 1 of 1 All times are UTC + 3 hours
Powered by phpBB © 2000, 2002, 2005, 2007 phpBB Group
http://www.phpbb.com/