\m/ 80's metal \m/

Информационно-аналитический форум "80 см пыли" (In Search We Trust) "У нас никто никуда не спешит"
Me For You - http://me-4u.com
It is currently 26 Aug 2019

All times are UTC + 3 hours

Spoiler
Chat - temporary registration for foreign users (please leave your application here)







Post new topic Reply to topic  [ 23 posts ]  Go to page 1, 2  Next
Author Message
 
PostPosted: 15 Apr 2009 
Персональный статус
Joined: 28 Mar 2009
Posts: 232
Age: 33
Full-length, Independent
1995
[add/edit review]
1. Face to face
2. Pay the price
3. Open hand to fist
4. I
5. Keep the silence
6. Betrayed,No return
7. Lost locomotive
8. When the night comes down
9. Lead or follow
10. Ready to go

http://www.metal-archives.com/release.php?id=88774

Power metal


Top
 Profile  
 
 
PostPosted: 15 Apr 2009 
хард н хэвщик (support team)
User avatar
Joined: 02 Jun 2008
Posts: 16881
Lоcаtion: Н.Новгород
Age: 32
Name: Артем
мдя. и никаких контактов на сайте "метал-архивы". состав неизвестен. гугль тоже ничего не выдает :fingal: :dash:
нашел только однофамильца Kris Krause, также из Канады, играющего в хардкорной банде Bleed for Summer :dash:


Top
 Profile  
 
 
PostPosted: 15 Jan 2011 
хард н хэвщик (support team)
User avatar
Joined: 02 Jun 2008
Posts: 16881
Lоcаtion: Н.Новгород
Age: 32
Name: Артем
заметочка самому себе :umnik:
http://kellers305.tripod.com/id23.htm


Top
 Profile  
 
 
PostPosted: 15 Apr 2012 
Работнечег
User avatar
Joined: 28 Aug 2007
Posts: 5954
Lоcаtion: г. Москва
Age: 30
Name: Дима
Image

Band: The Threat
Album: Sacred Ground
Year: 1995
Label: Self-Released
Genre: Heavy Metal
Coutry: Canada
Format: Flac + Log + Cue + Covers / MP3@320 kbps + Log + Cue + Covers
Size: 339 Mb / 124 Mb

Line-Up:
Kris Krause - Guitar & Lead Vocals
Erik Pietz - Bass & Vocals
Brian Kuschka - Drums & Vocals

Additional Backup Vocals: Ed Lashua

Tracklist:
1. Face to face 05:00
2. Pay the price 04:57
3. Open hand to fist 04:20
4. I 04:49
5. Keep the silence 03:55
6. Betrayed,No return 06:04
7. No return 03:44
8. Lost locomotive 04:06
9. When the night comes down 03:13
10. To Lead or follow 05:15
11. Ready to go 03:53

LOG
Exact Audio Copy V0.99 prebeta 5 from 4. May 2009

EAC extraction logfile from 21. March 2012, 7:54

The Threat / Sacred Ground

Used drive : PIONEER DVD-RW DVR-116D Adapter: 0 ID: 0

Read mode : Secure
Utilize accurate stream : Yes
Defeat audio cache : Yes
Make use of C2 pointers : No

Read offset correction : 96
Overread into Lead-In and Lead-Out : No
Fill up missing offset samples with silence : Yes
Delete leading and trailing silent blocks : No
Null samples used in CRC calculations : Yes
Used interface : Native Win32 interface for Win NT & 2000

Used output format : User Defined Encoder
Selected bitrate : 32 kBit/s
Quality : High
Add ID3 tag : No
Command line compressor : C:\Program Files\Exact Audio Copy\Flac\flac.exe
Additional command line options : -6 -V %s


TOC of the extracted CD

Track | Start | Length | Start sector | End sector
---------------------------------------------------------
1 | 0:00.00 | 4:59.67 | 0 | 22491
2 | 4:59.67 | 4:56.50 | 22492 | 44741
3 | 9:56.42 | 4:20.15 | 44742 | 64256
4 | 14:16.57 | 4:49.00 | 64257 | 85931
5 | 19:05.57 | 3:54.43 | 85932 | 103524
6 | 23:00.25 | 6:03.50 | 103525 | 130799
7 | 29:04.00 | 3:43.50 | 130800 | 147574
8 | 32:47.50 | 4:05.70 | 147575 | 166019
9 | 36:53.45 | 3:13.02 | 166020 | 180496
10 | 40:06.47 | 5:14.55 | 180497 | 204101
11 | 45:21.27 | 3:52.63 | 204102 | 221564


Range status and errors

Selected range

Filename D:\Музыка\Lossless\The Threat - Sacred Ground (1995)\The Threat - Sacred Ground.wav

Peak level 100.0 %
Range quality 100.0 %
Copy CRC 0F0C9C76
Copy OK

No errors occurred


AccurateRip summary

Track 1 not present in database
Track 2 not present in database
Track 3 not present in database
Track 4 not present in database
Track 5 not present in database
Track 6 not present in database
Track 7 not present in database
Track 8 not present in database
Track 9 not present in database
Track 10 not present in database
Track 11 not present in database

None of the tracks are present in the AccurateRip database

End of status report

CUE
REM GENRE "Heavy Metal"
REM DATE 1995
REM DISCID 9D0B8A0B
REM COMMENT "ExactAudioCopy v0.99pb5"
PERFORMER "The Threat"
TITLE "Sacred Ground"
FILE "The Threat - Sacred Ground.flac" WAVE
TRACK 01 AUDIO
TITLE "Face To face"
PERFORMER "The Threat"
INDEX 01 00:00:00
TRACK 02 AUDIO
TITLE "Pay The Price"
PERFORMER "The Threat"
INDEX 01 04:59:67
TRACK 03 AUDIO
TITLE "Open hand To Fist"
PERFORMER "The Threat"
INDEX 00 09:54:47
INDEX 01 09:56:42
TRACK 04 AUDIO
TITLE "I"
PERFORMER "The Threat"
INDEX 00 14:14:60
INDEX 01 14:16:57
TRACK 05 AUDIO
TITLE "Keep The Silence"
PERFORMER "The Threat"
INDEX 00 19:03:72
INDEX 01 19:05:57
TRACK 06 AUDIO
TITLE "Betrayed"
PERFORMER "The Threat"
INDEX 00 22:58:30
INDEX 01 23:00:25
TRACK 07 AUDIO
TITLE "No Return"
PERFORMER "The Threat"
INDEX 00 29:02:15
INDEX 01 29:04:00
TRACK 08 AUDIO
TITLE "Lost Locomotive"
PERFORMER "The Threat"
INDEX 00 32:45:70
INDEX 01 32:47:50
TRACK 09 AUDIO
TITLE "When The Night Comes Down"
PERFORMER "The Threat"
INDEX 00 36:51:57
INDEX 01 36:53:45
TRACK 10 AUDIO
TITLE "To Lead Or Follow"
PERFORMER "The Threat"
INDEX 01 40:06:47
TRACK 11 AUDIO
TITLE "Ready To Go"
PERFORMER "The Threat"
INDEX 00 45:19:65
INDEX 01 45:21:27

SPECTRUM
Image



FLAC
MP3@320

Малость перегруженый (имхо) звучок, но в остальном всё неплохо, хотя и выдающегося ничего нет. По стилю это хэви, местами довольно тяжеленький. Ознакомиться стоит, мне понравилось. Спасибо Саше spryt777 за возможность ознакомиться с данным альбомом :thanx:


Top
 Profile E-mail  
 
 
PostPosted: 15 Apr 2012 
Работнечег
User avatar
Joined: 28 Aug 2007
Posts: 5954
Lоcаtion: г. Москва
Age: 30
Name: Дима
mp3 320 и :losik:


Top
 Profile E-mail  
 
 
PostPosted: 15 Apr 2012 
Прокъмитолист
User avatar
Joined: 12 Aug 2007
Posts: 6593
Lоcаtion: Санктъ-Петербуркъ
Age: 51
Name: Олекъ
и я на ознакомление утяну. Димка, Саня, спасибо :thanx:

_________________
прокъметол - это музыко, от которово есть прок (ы)


Top
 Profile  
 
 
PostPosted: 15 Apr 2012 
хард н хэвщик (support team)
User avatar
Joined: 02 Jun 2008
Posts: 16881
Lоcаtion: Н.Новгород
Age: 32
Name: Артем
ого, еще одна копия нашлась :shok: причем недорого (4.95$) http://www.ebay.com/itm/Threat-Sacred-G ... 4629753361


Top
 Profile  
 
 
PostPosted: 15 Apr 2012 
хард н хэвщик (support team)
User avatar
Joined: 02 Jun 2008
Posts: 16881
Lоcаtion: Н.Новгород
Age: 32
Name: Артем
Спасибо за эту раритятинку! :true:


Top
 Profile  
 
 
PostPosted: 15 Apr 2012 
Работнечег
User avatar
Joined: 28 Aug 2007
Posts: 5954
Lоcаtion: г. Москва
Age: 30
Name: Дима
если кому-нибудь очень понравится, то можно и закупить будет))


Top
 Profile E-mail  
 
 
PostPosted: 15 Apr 2012 
*** Умер ***
User avatar
Joined: 25 Apr 2009
Posts: 2188
Lоcаtion: Санкт-Петербург
Age: 33
Name: Кирилл
Нудятина,не думаю что это стоит качать.


Top
 Profile E-mail  
 
 
PostPosted: 15 Apr 2012 
*** Умер ***
User avatar
Joined: 25 Apr 2009
Posts: 2188
Lоcаtion: Санкт-Петербург
Age: 33
Name: Кирилл
Беее....ужас :vic:


Top
 Profile E-mail  
 
 
PostPosted: 15 Apr 2012 
Пионэръ
User avatar
Joined: 02 Jul 2010
Posts: 45
Lоcаtion: Сочи
Age: 47
Name: Борис
Спасибо !!


Top
 Profile E-mail  
 
 
PostPosted: 16 Apr 2012 
Генеральный thrasher
User avatar
Joined: 03 Oct 2008
Posts: 3722
Lоcаtion: Ханты-Мансийский АО
Age: 44
Name: Сергей
Ознакомлюсь.Спасибо!


Top
 Profile  
 
 
PostPosted: 22 Apr 2012 
Персональный статус
User avatar
Joined: 22 Oct 2011
Posts: 352
Lоcаtion: Moscow
Age: 60
Name: Серёжа
:thanx:


Top
 Profile E-mail  
 
 
PostPosted: 23 Apr 2012 
Хиппей (support team)
User avatar
Joined: 30 Jul 2007
Posts: 114095
Lоcаtion: Киев (Kyiv, UA)
Age: 46
Name: Andrey
:thanx:

mirror: MultiUp l Narod

_________________


Top
 Profile E-mail  
 
 
PostPosted: 24 Apr 2012 
Хиппей (support team)
User avatar
Joined: 30 Jul 2007
Posts: 114095
Lоcаtion: Киев (Kyiv, UA)
Age: 46
Name: Andrey
Только начал случать альбом и сразу же вот такая нехитрая формула вырисовалась:

Armored Saint + Monster Magnet + Corrosion of Conformity + Danzig = The Threat :dance:

Завтра подробнее че-нить скажу...

_________________


Top
 Profile E-mail  
 
 
PostPosted: 24 Apr 2012 
хард н хэвщик (support team)
User avatar
Joined: 02 Jun 2008
Posts: 16881
Lоcаtion: Н.Новгород
Age: 32
Name: Артем
ой, к сожалению мне не понравилось :oops: перегруженный альбом для моих ушей :fingal:


Top
 Profile  
 
 
PostPosted: 24 Apr 2012 
Хиппей (support team)
User avatar
Joined: 30 Jul 2007
Posts: 114095
Lоcаtion: Киев (Kyiv, UA)
Age: 46
Name: Andrey
Так, в общем, альбом мне понравился ровно на половину :crazy:
Могу попесенно расписать, но лень и некада.
На что это всё похоже, уже сказал выше, а вот с разбросом стилевых рамок и бесконечных невтемных сбивок (синкопы?) немного ухи помялись :sp:
Хотя, музыка и вокал особо слух не режeт и я к такому набору привык давно в начале 90-х, но... всё равно альбом тяжеловато воспринимать как что-то целостное.
Это и не грув, не альтенрнатива и даже не стонер, это хэви утяжелённый, достаточно скоростной, почти дошедший до трэша (барабанщик так точно), но так и не сумевшая найти ту "золотую середину".
Посему альбом воспринимается или ржачно, или... вообще не впоспринимается :crazy:
Охренел в хорошем смысле от такой песни как "Betrayed" - это умягчённый британский Sabbat :kz:

5+/10

_________________


Last edited by Scatterbrain on 24 Apr 2012, edited 1 time in total.
Вместо буквы "и" влепил "я" =)


Top
 Profile E-mail  
 
 
PostPosted: 24 Apr 2012 
Я набрал 1000 сообщений!
User avatar
Joined: 25 Dec 2008
Posts: 1545
Age: 43
Name: Павел
Димка и Саша, спасибо за альбом. Альбом очень редкий, но не слишком удачный. И не пауэр-метал, как пишут на МА. После прослушки у меня тоже каша в голове полная. :fingal:


Top
 Profile  
 
 
PostPosted: 24 Apr 2012 
Прокъмитолист
User avatar
Joined: 12 Aug 2007
Posts: 6593
Lоcаtion: Санктъ-Петербуркъ
Age: 51
Name: Олекъ
Scatterbrain wrote:
я не грув, не альтенрнатива и даже не стонер

а хто ты? :shok:

_________________
прокъметол - это музыко, от которово есть прок (ы)


Top
 Profile  
 
Display posts from previous:  Sort by  
Post new topic Reply to topic  [ 23 posts ]  Go to page 1, 2  Next

All times are UTC + 3 hours


Who is online

Users browsing this forum: No registered users and 1 guest


You cannot post new topics in this forum
You cannot reply to topics in this forum
You cannot edit your posts in this forum
You cannot delete your posts in this forum
You cannot post attachments in this forum

Search for:
Яндекс.Метрика
Powered by phpBB © 2000, 2002, 2005, 2007 phpBB Group