\m/ 80's metal \m/

Информационно-аналитический форум "80 см пыли" (In Search We Trust) "У нас никто никуда не спешит"
Me For You - http://me-4u.com
It is currently 22 Nov 2018

All times are UTC + 3 hours

Spoiler
Chat - temporary registration for foreign users (please leave your application here)







Post new topic Reply to topic  [ 1 post ] 
Author Message
 
PostPosted: 30 Jun 2011 
Хиппей (support team)
User avatar
Joined: 30 Jul 2007
Posts: 108264
Lоcаtion: Киев (Kyiv, UA)
Age: 45
Name: Andrey
Su Ta Gar - 2006 - Jainko Hilen Uhartean [flac]

Genre: Heavy Metal
Location: Spain
Format: flac + cue + log + scans + video
Size: 550 Mb


Image
Image

Line-up:

Aitor Gorosabel - guitars (lead), vocals (lead), vocals (choirs)
Xabi Bastida - guitars (rhythm), vocals (choirs)
Galder Arrilaga - drums, vocals (choirs)
Asier Osoro - bass, vocals (backing), vocals (choirs)

    1. Uniformeen pasarelak - 03:12
    2. Ametsa ote? - 03:46
    3. Itxaropen hitza - 05:09
    4. Etsairik ausartena - 02:21
    5. Hesian - 04:36
    6. Norabide bakarreko maitasuna - 04:32
    7. Estralurtarra - 04:24
    8. Jainko hilen uhartean - 04:28
    9. Lagun bat gehiago - 04:29
    10. Gure izaeraren bila - 05:15
    11. Bere hitzen faltan - 04:37

    TPT: 46:49


Альбом пока еще не слушал вообще :pardon: Но кто-то его запрашивал здесь...

Speedy l Narod

Thanx to fdy from MMT :thanx:

log
EAC extraction logfile from 11. September 2006, 11:48 for CD
Su Ta Gar / Jainko Hilen Uhartean

Used drive : _NEC DVD_RW ND-3550A Adapter: 0 ID: 0
Read mode : Secure with NO C2, accurate stream, disable cache
Read offset correction : 48
Overread into Lead-In and Lead-Out : No

Used output format : C:\Archivos de programa\Exact Audio Copy\flac.exe (User Defined Encoder)
128 kBit/s
Additional command line options : -6 -V -T "artist=%a" -T "title=%t" -T "album=%g" -T "date=%y" -T "tracknumber=%n" -T "genre=%m" -T "comment=EAC 0.95beta4 / FLAC 1.1.0 q6" %s

Other options :
Fill up missing offset samples with silence : Yes
Delete leading and trailing silent blocks : No
Native Win32 interface for Win NT & 2000


Range status and errors
Selected range
Filename C:\Documents and Settings\fdy\Escritorio\Su Ta Gar - Jainko Hilen Uhartean.wav.wav.wav

Peak level 100.0 %
Range quality 99.9 %
CRC 3CFA6FEC
Copy OK

No errors occured

End of status report

cue
REM GENRE "Heavy Metal"
REM DATE 2006
REM DISCID AB10990C
REM COMMENT "ExactAudioCopy v0.95b4"
PERFORMER "Su Ta Gar"
TITLE "Jainko Hilen Uhartean"
FILE "Su Ta Gar - Jainko Hilen Uhartean.flac" WAVE
TRACK 01 AUDIO
TITLE "Uniformeen Pasarelak"
PERFORMER "Su Ta Gar"
INDEX 01 00:00:00
TRACK 02 AUDIO
TITLE "Ametsa Ote?"
PERFORMER "Su Ta Gar"
INDEX 01 03:11:40
TRACK 03 AUDIO
TITLE "Itxaropen Hitza"
PERFORMER "Su Ta Gar"
INDEX 01 06:57:36
TRACK 04 AUDIO
TITLE "Etsairik Ausartena"
PERFORMER "Su Ta Gar"
INDEX 01 12:06:07
TRACK 05 AUDIO
TITLE "Hesian"
PERFORMER "Su Ta Gar"
INDEX 01 14:26:47
TRACK 06 AUDIO
TITLE "Norabide Bakarreko Maitasuna"
PERFORMER "Su Ta Gar"
INDEX 01 19:01:67
TRACK 07 AUDIO
TITLE "Estralurtarra"
PERFORMER "Su Ta Gar"
INDEX 01 23:33:33
TRACK 08 AUDIO
TITLE "Jainko Hilen Uhartean"
PERFORMER "Su Ta Gar"
INDEX 01 27:57:50
TRACK 09 AUDIO
TITLE "Lagun Bat Gehiago"
PERFORMER "Su Ta Gar"
INDEX 01 32:25:45
TRACK 10 AUDIO
TITLE "Gure Izaeraren Bila"
PERFORMER "Su Ta Gar"
INDEX 01 36:54:46
TRACK 11 AUDIO
TITLE "Bere Hitzen Faltan"
PERFORMER "Su Ta Gar"
INDEX 01 42:09:10

spectrum
Image

_________________


Top
 Profile E-mail  
 
Display posts from previous:  Sort by  
Post new topic Reply to topic  [ 1 post ] 

All times are UTC + 3 hours


Who is online

Users browsing this forum: No registered users and 2 guests


You cannot post new topics in this forum
You cannot reply to topics in this forum
You cannot edit your posts in this forum
You cannot delete your posts in this forum
You cannot post attachments in this forum

Search for:
Яндекс.Метрика
Powered by phpBB © 2000, 2002, 2005, 2007 phpBB Group