\m/ 80's metal \m/

Информационно-аналитический форум "80 см пыли" (In Search We Trust) "У нас никто никуда не спешит"
Me For You - http://me-4u.com
It is currently 17 Nov 2018

All times are UTC + 3 hours

Spoiler
Chat - temporary registration for foreign users (please leave your application here)







Post new topic Reply to topic  [ 4 posts ] 
Author Message
 
PostPosted: 19 Jun 2011 
Генеральный thrasher
User avatar
Joined: 03 Oct 2008
Posts: 3504
Lоcаtion: Ханты-Мансийский АО
Age: 43
Name: Сергей
Image

Year:2003
Style:Heavy/Speed/Thrash Metal
Country:Spain
Audio:Flac+Cue+Log
Size:358Mb
Label:GOR

Line-Up:
Aitor Gorosabel - Vocals, Guitars
Xabi Bastida - Guitars
Galder Arrillaga - Drums
Asier Osoro - Bass

Tracklist:
1. Bidegabekeriaren balantzan 04:44
2. Azken gurutzada 02:47
3. Zuzen 03:32
4. Itsasoz beteriko mugetan 03:21
5. Arnas ixilean 04:59
6. Doinu ta ideiak sortzen 04:05
7. Beti zu gabe 03:54
8. Tartalo etsai 03:28
9. Mamu beltza 04:27
10. Amets baten bezala 05:40
11. Bizitzaren borroka 04:29
12. Zu zara Egunkaria 02:52

Cue
REM GENRE "Heavy/Speed/Thrash Metal"
REM DATE 2003
REM DISCID A20B560C
REM COMMENT "ExactAudioCopy v0.99pb5"
PERFORMER "Su Ta Gar"
TITLE "Itsasoz Beteriko Mugetan"
FILE "Su Ta Gar - Itsasoz Beteriko Mugetan.flac" WAVE
TRACK 01 AUDIO
TITLE "Bidegabekeriaren Balantzan"
PERFORMER "Su Ta Gar"
FLAGS DCP
INDEX 01 00:00:00
TRACK 02 AUDIO
TITLE "Azken Gurutzada"
PERFORMER "Su Ta Gar"
FLAGS DCP
INDEX 01 04:44:25
TRACK 03 AUDIO
TITLE "Zuzen"
PERFORMER "Su Ta Gar"
FLAGS DCP
INDEX 01 07:32:15
TRACK 04 AUDIO
TITLE "Itsasoz Beteriko Mugetan"
PERFORMER "Su Ta Gar"
FLAGS DCP
INDEX 01 11:04:11
TRACK 05 AUDIO
TITLE "Arnas Ixilean"
PERFORMER "Su Ta Gar"
FLAGS DCP
INDEX 01 14:25:37
TRACK 06 AUDIO
TITLE "Doinu eta Ideiak Sortzen"
PERFORMER "Su Ta Gar"
FLAGS DCP
INDEX 01 19:24:52
TRACK 07 AUDIO
TITLE "Beti Zu Gabe"
PERFORMER "Su Ta Gar"
FLAGS DCP
INDEX 01 23:30:29
TRACK 08 AUDIO
TITLE "Tartalo Etsai"
PERFORMER "Su Ta Gar"
FLAGS DCP
INDEX 01 27:24:33
TRACK 09 AUDIO
TITLE "Mamu Beltza"
PERFORMER "Su Ta Gar"
FLAGS DCP
INDEX 01 30:52:54
TRACK 10 AUDIO
TITLE "Amets Baten Bezala"
PERFORMER "Su Ta Gar"
FLAGS DCP
INDEX 01 35:20:02
TRACK 11 AUDIO
TITLE "Bizitzaren Borroka"
PERFORMER "Su Ta Gar"
FLAGS DCP
INDEX 01 41:00:48
TRACK 12 AUDIO
TITLE "Zu Zara Egunkaria"
PERFORMER "Su Ta Gar"
FLAGS DCP
INDEX 01 45:30:14


Log
Exact Audio Copy V0.99 prebeta 5 from 4. May 2009

EAC extraction logfile from 5. December 2010, 14:58

Su Ta Gar / Itsasoz Beteriko Mugetan

Used drive : TSSTcorp - CDDVDW TS-L633A AS00 Adapter: 2 ID: 1

Read mode : Secure
Utilize accurate stream : Yes
Defeat audio cache : Yes
Make use of C2 pointers : No

Read offset correction : 6
Overread into Lead-In and Lead-Out : No
Fill up missing offset samples with silence : Yes
Delete leading and trailing silent blocks : No
Null samples used in CRC calculations : Yes
Used interface : Native Win32 interface for Win NT & 2000

Used output format : Internal WAV Routines
Sample format : 44.100 Hz; 16 Bit; Stereo


TOC of the extracted CD

Track | Start | Length | Start sector | End sector
---------------------------------------------------------
1 | 0:00.00 | 4:44.25 | 0 | 21324
2 | 4:44.25 | 2:47.65 | 21325 | 33914
3 | 7:32.15 | 3:31.71 | 33915 | 49810
4 | 11:04.11 | 3:21.26 | 49811 | 64911
5 | 14:25.37 | 4:59.15 | 64912 | 87351
6 | 19:24.52 | 4:05.52 | 87352 | 105778
7 | 23:30.29 | 3:54.04 | 105779 | 123332
8 | 27:24.33 | 3:28.21 | 123333 | 138953
9 | 30:52.54 | 4:27.23 | 138954 | 159001
10 | 35:20.02 | 5:40.46 | 159002 | 184547
11 | 41:00.48 | 4:29.41 | 184548 | 204763
12 | 45:30.14 | 2:52.39 | 204764 | 217702


Range status and errors

Selected range

Filename D:\LOSSLESS\ОСТРОВ\Su Ta Gar 2003 - Itsasoz Beteriko Mugetan\Su Ta Gar - Itsasoz Beteriko Mugetan.wav

Peak level 96.6 %
Range quality 100.0 %
Test CRC 4AD44F26
Copy CRC 4AD44F26
Copy OK

No errors occurred


AccurateRip summary

Track 1 not present in database
Track 2 not present in database
Track 3 not present in database
Track 4 not present in database
Track 5 not present in database
Track 6 not present in database
Track 7 not present in database
Track 8 not present in database
Track 9 not present in database
Track 10 not present in database
Track 11 not present in database
Track 12 not present in database

None of the tracks are present in the AccurateRip database

End of status report


Itsasoz Beteriko Mugetan

И этот для Димки...


Top
 Profile  
 
 
PostPosted: 19 Jun 2011 
Работнечег
User avatar
Joined: 28 Aug 2007
Posts: 5528
Lоcаtion: г. Москва
Age: 29
Name: Дима
Спасибо! Это был первый альбом, который я услышал, поэтому он для меня особенный, ну и вообще материал сильный тут, имхо! :true:


Top
 Profile E-mail  
 
 
PostPosted: 19 Jun 2011 
Хиппей (support team)
User avatar
Joined: 30 Jul 2007
Posts: 108071
Lоcаtion: Киев (Kyiv, UA)
Age: 45
Name: Andrey
:thanx:
mirror: MultiUp l Narod

_________________


Top
 Profile E-mail  
 
 
PostPosted: 03 Aug 2011 
ТрэшЭрос
User avatar
Joined: 18 Jul 2011
Posts: 2299
Lоcаtion: Гулькевичи
Age: 43
Name: Александр
:thanx:

_________________
Thrash no trash!!!


Top
 Profile E-mail  
 
Display posts from previous:  Sort by  
Post new topic Reply to topic  [ 4 posts ] 

All times are UTC + 3 hours


Who is online

Users browsing this forum: No registered users and 3 guests


You cannot post new topics in this forum
You cannot reply to topics in this forum
You cannot edit your posts in this forum
You cannot delete your posts in this forum
You cannot post attachments in this forum

Search for:
Яндекс.Метрика
Powered by phpBB © 2000, 2002, 2005, 2007 phpBB Group