\m/ 80's metal \m/

Информационно-аналитический форум "80 см пыли" (In Search We Trust) "У нас никто никуда не спешит"
Железнодорожная биржа - RailAgent
It is currently 23 Jul 2018

All times are UTC + 3 hours

Spoiler
Chat - temporary registration for foreign users (please leave your application here)







Post new topic Reply to topic  [ 5 posts ] 
Author Message
 
PostPosted: 19 Jun 2011 
Генеральный thrasher
User avatar
Joined: 03 Oct 2008
Posts: 3408
Lоcаtion: Ханты-Мансийский АО
Age: 43
Name: Сергей
Image

Year:1997
Style:Heavy/Speed/Thrash Metal
Country:Spain
Audio:Flac+Cue+Log
Size:353Mb
Label:Esan Ozenki Records

Line-Up:
Bass - Asier Osoro
Drums - Iban Zugarramurdi
Guitar - Xabi Bastida
Guitar, Vocals - Aitor Gorosabel Garai

Tracklist:
1 Rotaflexa Garraxika 2:49
2 Agur Jauna 3:28
3 Norabiderik Gabe 2:37
4 Tiocfaidh Ár Lá 4:23
5 Hitz Margotuak 4:58
6 Gidoi Gabeko Filmea 5:24
7 Amerika 5:09
8 Gau Iluna Amaitu Da 5:27
9 Pagolako Haranetik 3:42
10 Lurraren Oihua 3:39
11 Gazte Eder Baten Ametsak 5:23

Cue
REM GENRE "Heavy/Speed/Thrash Metal"
REM DATE 1997
REM DISCID 8F0B190B
REM COMMENT "ExactAudioCopy v0.99pb5"
PERFORMER "Su Ta Gar"
TITLE "Agur Jauna Gizon Txuriari"
FILE "Su Ta Gar - Agur Jauna Gizon Txuriari.flac" WAVE
TRACK 01 AUDIO
TITLE "Rotaflexa Garraxika"
PERFORMER "Su Ta Gar"
FLAGS DCP
INDEX 01 00:00:00
TRACK 02 AUDIO
TITLE "Agur Jauna"
PERFORMER "Su Ta Gar"
FLAGS DCP
INDEX 01 02:47:45
TRACK 03 AUDIO
TITLE "Norabiderik Gabe"
PERFORMER "Su Ta Gar"
FLAGS DCP
INDEX 01 06:17:60
TRACK 04 AUDIO
TITLE "Tiocfaidh Ar La"
PERFORMER "Su Ta Gar"
FLAGS DCP
INDEX 01 08:57:62
TRACK 05 AUDIO
TITLE "Hitz Margotuak"
PERFORMER "Su Ta Gar"
FLAGS DCP
INDEX 01 13:23:50
TRACK 06 AUDIO
TITLE "Gidoi Gabeko Filmea"
PERFORMER "Su Ta Gar"
FLAGS DCP
INDEX 01 18:25:10
TRACK 07 AUDIO
TITLE "Amerika"
PERFORMER "Su Ta Gar"
FLAGS DCP
INDEX 01 23:48:30
TRACK 08 AUDIO
TITLE "Gau Iluna Amaitu Da"
PERFORMER "Su Ta Gar"
FLAGS DCP
INDEX 01 29:00:20
TRACK 09 AUDIO
TITLE "Pagolako Haranetik"
PERFORMER "Su Ta Gar"
FLAGS DCP
INDEX 01 34:28:40
TRACK 10 AUDIO
TITLE "Lurraren Oihua"
PERFORMER "Su Ta Gar"
FLAGS DCP
INDEX 01 38:14:05
TRACK 11 AUDIO
TITLE "Gazte Eder Baten Ametsak"
PERFORMER "Su Ta Gar"
FLAGS DCP
INDEX 01 41:57:50


Log
Exact Audio Copy V0.99 prebeta 5 from 4. May 2009

EAC extraction logfile from 5. December 2010, 13:51

Su Ta Gar / Agur Jauna Gizon Txuriari

Used drive : TSSTcorp - CDDVDW TS-L633A AS00 Adapter: 2 ID: 1

Read mode : Secure
Utilize accurate stream : Yes
Defeat audio cache : Yes
Make use of C2 pointers : No

Read offset correction : 6
Overread into Lead-In and Lead-Out : No
Fill up missing offset samples with silence : Yes
Delete leading and trailing silent blocks : No
Null samples used in CRC calculations : Yes
Used interface : Native Win32 interface for Win NT & 2000

Used output format : Internal WAV Routines
Sample format : 44.100 Hz; 16 Bit; Stereo


TOC of the extracted CD

Track | Start | Length | Start sector | End sector
---------------------------------------------------------
1 | 0:00.00 | 2:47.45 | 0 | 12569
2 | 2:47.45 | 3:30.15 | 12570 | 28334
3 | 6:17.60 | 2:40.02 | 28335 | 40336
4 | 8:57.62 | 4:25.63 | 40337 | 60274
5 | 13:23.50 | 5:01.35 | 60275 | 82884
6 | 18:25.10 | 5:23.20 | 82885 | 107129
7 | 23:48.30 | 5:11.65 | 107130 | 130519
8 | 29:00.20 | 5:28.20 | 130520 | 155139
9 | 34:28.40 | 3:45.40 | 155140 | 172054
10 | 38:14.05 | 3:43.45 | 172055 | 188824
11 | 41:57.50 | 5:23.57 | 188825 | 213106


Range status and errors

Selected range

Filename D:\LOSSLESS\ОСТРОВ\Su Ta Gar 1997 - Agur Jauna Gizon Txuriari\Su Ta Gar - Agur Jauna Gizon Txuriari.wav

Peak level 100.0 %
Range quality 100.0 %
Test CRC 87283678
Copy CRC 87283678
Copy OK

No errors occurred


AccurateRip summary

Track 1 accurately ripped (confidence 1) [BDE72912]
Track 2 accurately ripped (confidence 1) [19F81763]
Track 3 accurately ripped (confidence 1) [3DCCDCA8]
Track 4 accurately ripped (confidence 1) [553A01D1]
Track 5 accurately ripped (confidence 1) [B22D6ABA]
Track 6 accurately ripped (confidence 1) [85427544]
Track 7 accurately ripped (confidence 1) [B68FA0F6]
Track 8 accurately ripped (confidence 1) [4DD8A88E]
Track 9 accurately ripped (confidence 1) [CCCD2AD4]
Track 10 accurately ripped (confidence 1) [8282D7F5]
Track 11 accurately ripped (confidence 1) [CBD940FE]

All tracks accurately ripped

End of status report


Agur Jauna Gizon Txuriari


Top
 Profile  
 
 
PostPosted: 19 Jun 2011 
Генеральный thrasher
User avatar
Joined: 03 Oct 2008
Posts: 3408
Lоcаtion: Ханты-Мансийский АО
Age: 43
Name: Сергей
Для Димки (church)...Если он ещё не нашёл их альбомов


Top
 Profile  
 
 
PostPosted: 19 Jun 2011 
Я набрал 1000 сообщений!
User avatar
Joined: 25 Dec 2008
Posts: 1545
Age: 42
Name: Павел
Спасибо, Сергей! Я тоже заберу. Более ранние на ММТ есть.
Ранние альбомы, кстати, очень хороши!


Top
 Profile  
 
 
PostPosted: 19 Jun 2011 
Работнечег
User avatar
Joined: 28 Aug 2007
Posts: 5387
Lоcаtion: г. Москва
Age: 29
Name: Дима
Спасибо огромное, Серёг! Нашёл, но ещё не купил :crazy: Группа вообще классная, и ранние, и поздние творения, хотя конечно парочка провальных альбомов есть, ну ообщем как и у всех наверное)


Top
 Profile E-mail  
 
 
PostPosted: 20 Jun 2011 
Хиппей (support team)
User avatar
Joined: 30 Jul 2007
Posts: 105233
Lоcаtion: Киев (Kyiv, UA)
Age: 45
Name: Andrey
:thanx:
mirror: MultiUp l Narod

_________________


Top
 Profile E-mail  
 
Display posts from previous:  Sort by  
Post new topic Reply to topic  [ 5 posts ] 

All times are UTC + 3 hours


Who is online

Users browsing this forum: thorbeorn and 3 guests


You cannot post new topics in this forum
You cannot reply to topics in this forum
You cannot edit your posts in this forum
You cannot delete your posts in this forum
You cannot post attachments in this forum

Search for:
Яндекс.Метрика
Powered by phpBB © 2000, 2002, 2005, 2007 phpBB Group