\m/ 80's metal \m/

Информационно-аналитический форум "80 см пыли" (In Search We Trust) "У нас никто никуда не спешит"
Me For You - http://me-4u.com
It is currently 22 Nov 2018

All times are UTC + 3 hours

Spoiler
Chat - temporary registration for foreign users (please leave your application here)







Post new topic Reply to topic  [ 4 posts ] 
Author Message
 
PostPosted: 17 Jun 2011 
Прокъмитолист
User avatar
Joined: 12 Aug 2007
Posts: 6504
Lоcаtion: Санктъ-Петербуркъ
Age: 51
Name: Олекъ
Salvation Front [1996] Trying To Stay Real
MaGaDa International (MAGCD-43)

Image

Genre: power/progressive metal
Country: Canada
Contents: flac/cue/log/covers
Size: 450 MB

Tracklist:
01. One Man In A World
02. Crawling From The Edge
03. Hate (Holding On)
04. Too Much - Too Soon
05. Rain
06. Our Lost Ways
07. Crossroads
08. 861 (A Land Forgotten By Time)
09. Scratch Outside
10. Walkin
11. Trying To Stay Real

Playtime: 60:11

Lineup:
Gordon Sheffroth - vocals
Michael Dunn - rhythm, acoustic and lead guitars
Troy McLaggen - lead guitars
Michael Dykeman - bass, additional guitars and backing vocals
Patrice Pelletier - drums

EAC log
Code:
Exact Audio Copy V1.0 beta 1 from 15. November 2010

EAC extraction logfile from 26. May 2011, 20:40

Salvation Front / Trying To Stay Real

Used drive  : Optiarc DVD RW AD-7240S   Adapter: 2  ID: 0

Read mode               : Secure
Utilize accurate stream : Yes
Defeat audio cache      : Yes
Make use of C2 pointers : No

Read offset correction                      : 48
Overread into Lead-In and Lead-Out          : No
Fill up missing offset samples with silence : Yes
Delete leading and trailing silent blocks   : No
Null samples used in CRC calculations       : Yes
Used interface                              : Native Win32 interface for Win NT & 2000

Used output format : Internal WAV Routines
Sample format      : 44.100 Hz; 16 Bit; Stereo


TOC of the extracted CD

     Track |   Start  |  Length  | Start sector | End sector
    ---------------------------------------------------------
        1  |  0:00.00 |  4:34.15 |         0    |    20564   
        2  |  4:34.15 |  5:02.00 |     20565    |    43214   
        3  |  9:36.15 |  5:36.22 |     43215    |    68436   
        4  | 15:12.37 |  4:37.00 |     68437    |    89211   
        5  | 19:49.37 |  5:28.53 |     89212    |   113864   
        6  | 25:18.15 |  5:44.60 |    113865    |   139724   
        7  | 31:03.00 |  5:34.41 |    139725    |   164815   
        8  | 36:37.41 |  5:06.30 |    164816    |   187795   
        9  | 41:43.71 |  5:48.67 |    187796    |   213962   
       10  | 47:32.63 |  5:18.27 |    213963    |   237839   
       11  | 52:51.15 |  7:20.48 |    237840    |   270887   


Range status and errors

Selected range

     Filename D:\spiralarch\Salvation Front - Trying To Stay Real.wav

     Peak level 100.0 %
     Extraction speed 0.4 X
     Range quality 100.0 %
     Copy CRC D1D6DF20
     Copy OK

No errors occurred


AccurateRip summary

Track  1  not present in database
Track  2  not present in database
Track  3  not present in database
Track  4  not present in database
Track  5  not present in database
Track  6  not present in database
Track  7  not present in database
Track  8  not present in database
Track  9  not present in database
Track 10  not present in database
Track 11  not present in database

None of the tracks are present in the AccurateRip database

End of status report

==== Log checksum B97F2FBCFBC4E5DEBC791DE46CA3BDC9890E12F8AF817505BE7C8160B182E8BC ====

Вот такой подарок мне вручил Серёга wizard12 при нашей последней встрече в Питере... я прифигел, если честно... :shok:
Теперь, как честный человек, я просто обязан жениться поделиться этим альбомом с другими :true:
Налетайте, кому такое интересно (зарелизил сегодня абсолютно идентичный архив на ММТ, так что желающие могут скачать с Меги и подключиться потом к раздаче в осле).

phpBB [youtube]


Серёг, еще раз огромное тебе спасибо! :drink:

_________________
прокъметол - это музыко, от которово есть прок (ы)


Top
 Profile  
 
 
PostPosted: 17 Jun 2011 
Power Metal Maniac
User avatar
Joined: 09 Aug 2008
Posts: 6375
Lоcаtion: Москва
Age: 40
Name: Егор
:thanx:

_________________
Long Live Metal!


Top
 Profile  
 
 
PostPosted: 17 Jun 2011 
А может смените мне статус?..
Joined: 03 Jul 2009
Posts: 829
Lоcаtion: Serbia
Name: Laki
Great. Thanks :true:


Top
 Profile E-mail  
 
 
PostPosted: 18 Jun 2011 
Хиппей (support team)
User avatar
Joined: 30 Jul 2007
Posts: 108264
Lоcаtion: Киев (Kyiv, UA)
Age: 45
Name: Andrey
:thanx:
mirror: MultiUp l Narod

_________________


Top
 Profile E-mail  
 
Display posts from previous:  Sort by  
Post new topic Reply to topic  [ 4 posts ] 

All times are UTC + 3 hours


Who is online

Users browsing this forum: No registered users and 1 guest


You cannot post new topics in this forum
You cannot reply to topics in this forum
You cannot edit your posts in this forum
You cannot delete your posts in this forum
You cannot post attachments in this forum

Search for:
Яндекс.Метрика
Powered by phpBB © 2000, 2002, 2005, 2007 phpBB Group